<?xml version="1.0" standalone="no"?>
<!DOCTYPE svg PUBLIC "-//W3C//DTD SVG 1.1//EN" "http://www.w3.org/Graphics/SVG/1.1/DTD/svg11.dtd" >
<svg xmlns="http://www.w3.org/2000/svg" xmlns:xlink="http://www.w3.org/1999/xlink" version="1.1">
<metadata>
Created by FontForge 20161013 at Sun Jul 23 14:12:00 2017
 By ,,,
Copyright (c)2016. Cerebri Sans is a trademark of Alfredo Marco Pradil. All rights reserved.
</metadata>
<defs>
<font id="CerebriSans-LightItalic" horiz-adv-x="0" >
  <font-face 
    font-family="Cerebri Sans Light Italic"
    font-weight="300"
    font-style="italic"
    font-stretch="normal"
    units-per-em="2048"
    panose-1="0 0 4 0 0 0 0 0 0 0"
    ascent="1536"
    descent="-512"
    x-height="966"
    cap-height="1394"
    bbox="-1613 -554 2799 2376"
    underline-thickness="82"
    underline-position="-348"
    slope="-10"
    unicode-range="U+0020-FB02"
  />
<missing-glyph horiz-adv-x="1252" 
d="M268 0v1536h816v-1536h-816zM375 108h601v1320h-601v-1320z" />
    <glyph glyph-name="fi" unicode="fi" horiz-adv-x="1059" 
d="M659 1447q-65 0 -114 -45t-62 -125l-55 -311h231l-19 -107h-231l-152 -859h-129l151 859h-186l19 107h186l57 322q22 125 97 196.5t183 71.5q60 0 120 -22l-12 -107q-39 20 -84 20zM990 1465q41 0 68 -29.5t21 -70.5q-5 -41 -38 -70.5t-73 -29.5q-41 0 -67 29.5t-22 70.5
q4 42 36.5 71t74.5 29zM669 0l171 968h135l-171 -968h-135z" />
    <glyph glyph-name="fl" unicode="fl" horiz-adv-x="1054" 
d="M659 1447q-65 0 -114 -45t-62 -125l-55 -311h231l-19 -107h-231l-152 -859h-129l151 859h-186l19 107h186l57 322q22 125 97 196.5t183 71.5q60 0 120 -22l-12 -107q-39 20 -84 20zM938 1536h132l-271 -1536h-131z" />
    <glyph glyph-name="f_f" unicode="ff" horiz-adv-x="1159" 
d="M128 0l151 858h-186l20 110h186l56 318q22 127 97.5 198.5t187.5 71.5q58 0 118 -22l-11 -109q-43 23 -92 23q-61 0 -108 -44.5t-61 -128.5l-54 -307h438l56 318q21 127 97 198.5t188 71.5q58 0 118 -22l-12 -109q-42 23 -91 23q-61 0 -108 -44.5t-61 -128.5l-55 -307
h232l-19 -110h-232l-152 -858h-132l151 858h-438l-151 -858h-133z" />
    <glyph glyph-name=".notdef" horiz-adv-x="1252" 
d="M268 0v1536h816v-1536h-816zM375 108h601v1320h-601v-1320z" />
    <glyph glyph-name=".null" 
 />
    <glyph glyph-name="nonmarkingreturn" horiz-adv-x="682" 
 />
    <glyph glyph-name="space" unicode=" " horiz-adv-x="532" 
 />
    <glyph glyph-name="exclam" unicode="!" horiz-adv-x="604" 
d="M224 379l172 1016h134l-185 -1016h-121zM224 -20q-45 0 -72 32.5t-19 76.5q7 39 38 65t68 26q45 0 72 -32.5t19 -76.5q-7 -38 -38 -64.5t-68 -26.5z" />
    <glyph glyph-name="quotedbl" unicode="&#x22;" horiz-adv-x="913" 
d="M288 753l106 642h128l-119 -642h-115zM605 753l109 642h126l-120 -642h-115z" />
    <glyph glyph-name="numbersign" unicode="#" horiz-adv-x="1447" 
d="M238 0l111 351h-281l36 110h280l153 475h-281l35 109h276l117 355h109l-110 -355h378l113 355h114l-115 -355h283l-38 -109h-279l-150 -475h278l-34 -110h-278l-117 -351h-107l110 351h-381l-114 -351h-108zM494 461h383l152 475h-384z" />
    <glyph glyph-name="dollar" unicode="$" horiz-adv-x="1309" 
d="M754 759q78 -20 128.5 -36.5t112 -49t94 -71t49.5 -100.5t3 -140q-17 -94 -65.5 -166.5t-119.5 -117.5t-156 -69t-183 -27l-22 -125h-87l22 126q-184 12 -294.5 108t-119.5 251l143 27q6 -114 86.5 -184t206.5 -79l98 556q-97 25 -156.5 48t-122.5 65.5t-85.5 109
t-6.5 158.5t64.5 164t118 116t150.5 66.5t169 23.5l24 134h88l-24 -138q163 -16 263 -99.5t108 -227.5l-138 -29q-8 104 -76.5 162t-178.5 71zM415 1025q-8 -44 2.5 -79t30.5 -58.5t59 -44t74 -33t90 -28.5l89 506q-80 -4 -149.5 -31t-125 -87t-70.5 -145zM1003 379
q7 46 -4.5 83.5t-33 63t-62.5 47.5t-78 36t-92 30l-94 -532q92 6 165.5 34t129 89t69.5 149z" />
    <glyph glyph-name="percent" unicode="%" horiz-adv-x="1429" 
d="M459 866q-102 0 -168.5 67.5t-66.5 167.5q0 123 95 218.5t220 95.5q102 0 168.5 -67.5t66.5 -166.5q0 -125 -95 -220t-220 -95zM182 -2l996 1400h133l-996 -1400h-133zM462 970q84 0 147.5 63.5t63.5 144.5q0 58 -38.5 96t-99.5 38q-81 0 -146 -62t-65 -145
q0 -58 39.5 -96.5t98.5 -38.5zM969 -18q-104 0 -171 67t-67 167q0 125 96 219.5t221 94.5q100 0 166.5 -67.5t66.5 -165.5q0 -125 -94 -220t-218 -95zM971 84q81 0 147 64.5t66 144.5q0 59 -39.5 96.5t-100.5 37.5q-83 0 -147 -61.5t-64 -145.5q0 -58 38.5 -97t99.5 -39z
" />
    <glyph glyph-name="ampersand" unicode="&#x26;" horiz-adv-x="1447" 
d="M475 -20q-177 0 -281 77t-104 223q0 79 16.5 134.5t69.5 121t150 135.5t259 164q-62 109 -86.5 165.5t-24.5 112.5q0 128 100 215t247 87q123 0 196.5 -62t73.5 -163q0 -114 -80.5 -202t-259.5 -191l253 -438q89 93 148.5 202.5t78.5 217.5l128 -11q-24 -140 -99.5 -274
t-188.5 -245l148 -249h-161l-91 163q-113 -86 -240 -134.5t-252 -48.5zM695 888q157 96 213 163t56 137q0 56 -39.5 88.5t-106.5 32.5q-92 0 -152.5 -59.5t-60.5 -148.5q0 -37 14 -69.5t76 -143.5zM483 99q213 0 423 170l-264 467q-66 -37 -106.5 -61.5t-90.5 -57t-80 -57.5
t-61 -57.5t-47.5 -63.5t-27 -69t-10.5 -79q0 -98 69.5 -145t194.5 -47z" />
    <glyph glyph-name="quotesingle" unicode="'" horiz-adv-x="595" 
d="M287 753l109 642h127l-121 -642h-115z" />
    <glyph glyph-name="parenleft" unicode="(" horiz-adv-x="633" 
d="M354 -526q-173 119 -236 391.5t2 658.5q66 372 223.5 646t370.5 392l60 -92q-190 -106 -335 -360t-206 -604q-61 -356 -8 -600t206 -350z" />
    <glyph glyph-name="parenright" unicode=")" horiz-adv-x="633" 
d="M-70 -532l-60 94q191 106 335.5 358t207.5 604q60 351 7 599t-207 353l77 80q173 -118 236.5 -393t-1.5 -657q-66 -375 -223.5 -647t-371.5 -391z" />
    <glyph glyph-name="asterisk" unicode="*" horiz-adv-x="943" 
d="M423 941l-68 45l180 204q17 20 14 30.5t-25 8.5l-258 -18l13 84l244 -21q22 -2 35.5 13t5.5 32l-113 204l76 39l71 -225q6 -20 20.5 -17t26.5 24l145 218l70 -39l-180 -210q-17 -18 -15 -29t24 -9l260 20l-13 -84l-246 18q-22 2 -35.5 -12t-3.5 -33l114 -198l-79 -45
l-68 227q-5 20 -20 17.5t-27 -24.5z" />
    <glyph glyph-name="plus" unicode="+" horiz-adv-x="1179" 
d="M567 207v411h-412v116h412v409h116v-409h409v-116h-409v-411h-116z" />
    <glyph glyph-name="comma" unicode="," horiz-adv-x="601" 
d="M28 -359l228 609h145l-271 -609h-102z" />
    <glyph glyph-name="hyphen" unicode="-" horiz-adv-x="1045" 
d="M162 477l20 111h717l-20 -111h-717z" />
    <glyph glyph-name="period" unicode="." horiz-adv-x="616" 
d="M230 -20q-44 0 -71 32t-20 77q7 37 38.5 64t67.5 27q45 0 72 -33t19 -76q-7 -39 -38 -65t-68 -26z" />
    <glyph glyph-name="slash" unicode="/" horiz-adv-x="787" 
d="M-150 -360l991 1896h132l-991 -1896h-132z" />
    <glyph glyph-name="zero" unicode="0" horiz-adv-x="1129" 
d="M486 -19q-219 0 -306.5 186t-25.5 540q61 349 205.5 528t359.5 179q221 0 308 -185.5t24 -539.5q-61 -347 -208 -527.5t-357 -180.5zM489 109q156 0 267 150.5t164 447.5q51 295 -3.5 437t-200.5 142q-155 0 -265.5 -148t-163.5 -449q-102 -580 202 -580z" />
    <glyph glyph-name="one" unicode="1" horiz-adv-x="1129" 
d="M753 1395h124l-246 -1395h-133l219 1241l-389 -287l24 148z" />
    <glyph glyph-name="two" unicode="2" horiz-adv-x="1129" 
d="M1061 1014q-19 -108 -83 -201.5t-188 -203.5l-553 -482h726l-22 -127h-926l17 102l661 585q121 106 173.5 185.5t63.5 156.5q22 127 -41 196t-177 69q-128 0 -224.5 -80.5t-120.5 -215.5q-12 -64 -3 -138l-134 19q-5 80 6 138q31 180 165 289.5t316 109.5
q180 0 278 -108.5t66 -293.5z" />
    <glyph glyph-name="three" unicode="3" horiz-adv-x="1129" 
d="M474 -19q-95 0 -174 29t-133 82.5t-76.5 134t-4.5 177.5q9 49 16 70h141q-19 -47 -25 -87q-15 -86 16 -150.5t94.5 -97t148.5 -32.5q147 0 256.5 85t131.5 220q24 131 -49 207t-202 76h-78l20 121h70q96 0 181 73t104 177q16 97 -43 160t-165 63q-112 0 -197.5 -68
t-103.5 -170q-8 -42 -4 -68l-136 10q0 48 7 71q25 153 150 251.5t286 98.5q167 0 263 -103.5t69 -254.5q-18 -102 -87 -179.5t-167 -113.5q118 -35 180 -133t36 -242q-32 -182 -180.5 -294.5t-344.5 -112.5z" />
    <glyph glyph-name="four" unicode="4" horiz-adv-x="1129" 
d="M1077 413l-22 -127h-232l-50 -286h-135l50 286h-676l20 127l783 982h204l-173 -982h231zM711 413l153 867l-679 -867h526z" />
    <glyph glyph-name="five" unicode="5" horiz-adv-x="1129" 
d="M1108 1265h-593l-120 -370h205q249 0 352.5 -122.5t66.5 -333.5q-36 -200 -183 -328t-347 -128q-72 0 -136.5 17.5t-117 53t-86.5 88.5t-46.5 124t3.5 159q4 28 16 67l142 8q-21 -73 -24 -89q-14 -80 2 -140t55.5 -93.5t88 -50t104.5 -16.5q150 0 259.5 96.5t135.5 243.5
q27 151 -45.5 236t-261.5 85h-355l207 621h700z" />
    <glyph glyph-name="six" unicode="6" horiz-adv-x="1129" 
d="M669 928q86 -2 159 -35.5t124.5 -92t73.5 -148.5t5 -197q-21 -139 -102.5 -247.5t-196.5 -165.5t-242 -57q-208 0 -324.5 131.5t-80.5 341.5q33 175 174 327l587 610h169l-475 -484q65 18 129 17zM903 475q24 159 -54 248t-220 89q-152 0 -272 -107t-143 -259
q-25 -159 52.5 -245.5t225.5 -86.5q152 0 269 99t142 262z" />
    <glyph glyph-name="seven" unicode="7" horiz-adv-x="1129" 
d="M255 1395h944l-19 -118l-924 -1277h-160l928 1268h-791z" />
    <glyph glyph-name="eight" unicode="8" horiz-adv-x="1129" 
d="M488 -19q-179 0 -291.5 95t-112.5 253q0 150 91.5 270t255.5 173q-70 35 -110 99t-40 146q0 63 28 130.5t80.5 128t139.5 99.5t192 39q148 0 241 -82.5t93 -213.5q0 -115 -69.5 -210t-184.5 -144q100 -35 158 -113.5t58 -189.5q0 -63 -20.5 -128.5t-64 -129
t-104.5 -112.5t-149.5 -79.5t-190.5 -30.5zM619 816q74 0 135.5 30t98 75t56 92.5t19.5 86.5q0 84 -59.5 138.5t-152.5 54.5q-125 0 -218 -83t-93 -201q0 -85 59 -139t155 -54zM492 108q97 0 175 35.5t123.5 91.5t69.5 117t24 119q0 107 -75 170t-196 63
q-104 0 -193.5 -44.5t-145 -128t-55.5 -188.5q0 -108 75.5 -171.5t197.5 -63.5z" />
    <glyph glyph-name="nine" unicode="9" horiz-adv-x="1129" 
d="M715 1410q206 0 323.5 -131.5t80.5 -341.5q-33 -174 -175 -327l-588 -610h-172l472 482q-60 -16 -124 -15q-84 2 -157 36.5t-124 94t-73 149t-5 193.5q34 210 189.5 340t352.5 130zM989 949q25 158 -52.5 245t-223.5 87q-151 0 -269.5 -99.5t-143.5 -261.5
q-24 -157 55 -247t222 -90q151 0 270 107t142 259z" />
    <glyph glyph-name="colon" unicode=":" horiz-adv-x="597" 
d="M344 689q-44 0 -71 32.5t-20 76.5q8 38 39.5 64.5t68.5 26.5q43 0 70.5 -32.5t19.5 -76.5q-7 -39 -38.5 -65t-68.5 -26zM219 -20q-44 0 -70.5 32t-19.5 77q7 37 38 64t68 27q44 0 71.5 -33t19.5 -76q-7 -38 -38.5 -64.5t-68.5 -26.5z" />
    <glyph glyph-name="semicolon" unicode=";" horiz-adv-x="604" 
d="M374 689q-46 0 -73 32.5t-19 76.5q7 38 38.5 64.5t70.5 26.5q42 0 69.5 -33t20.5 -76q-7 -38 -39 -64.5t-68 -26.5zM-1 -359l229 609h145l-271 -609h-103z" />
    <glyph glyph-name="less" unicode="&#x3c;" horiz-adv-x="1437" 
d="M1278 1330v-129l-1008 -508l1008 -509v-131l-1131 572v137z" />
    <glyph glyph-name="equal" unicode="=" horiz-adv-x="1166" 
d="M224 828v116h724v-116h-724zM224 429v116h724v-116h-724z" />
    <glyph glyph-name="greater" unicode="&#x3e;" horiz-adv-x="1437" 
d="M234 1330l1130 -568v-137l-1130 -572v131l1008 509l-1008 508v129z" />
    <glyph glyph-name="question" unicode="?" horiz-adv-x="985" 
d="M407 376l24 137q17 94 69.5 143.5t164.5 101.5q153 64 187 259q23 128 -37 206t-177 78q-121 0 -217.5 -89t-119.5 -223q-8 -44 -8 -75l-112 15q0 43 8 96q31 172 157 281t293 109q176 0 269 -116.5t61 -298.5q-25 -138 -96 -223.5t-165 -124.5q-72 -27 -111 -62t-50 -96
l-20 -118h-120zM413 -20q-44 0 -70 32t-19 77q7 37 38.5 64t66.5 27q43 0 69.5 -33t19.5 -76q-7 -39 -37.5 -65t-67.5 -26z" />
    <glyph glyph-name="at" unicode="@" horiz-adv-x="1751" 
d="M769 -195q-180 0 -323 80.5t-221.5 220t-78.5 311.5q0 119 40.5 241t118 231.5t181 195t241 136t285.5 50.5q134 0 249 -45.5t196 -125.5t127 -194.5t46 -247.5q0 -79 -14 -155t-44.5 -145.5t-74.5 -122t-108 -83.5t-141 -31q-95 0 -153 40.5t-65 105.5h-7
q-105 -125 -272 -125q-96 0 -153.5 44t-57.5 130q0 112 72 181.5t256 99.5l210 36q13 74 13 100q1 65 -39.5 95.5t-107.5 30.5q-73 0 -132.5 -35t-80.5 -101l-97 33q33 92 114.5 141t195.5 49q116 0 189 -52t73 -158q0 -30 -34.5 -215.5t-34.5 -210.5q0 -101 115 -101
q73 0 129.5 43t87.5 112t46 142.5t15 147.5q0 233 -144.5 375t-373.5 142q-165 0 -312.5 -71t-245 -181.5t-154 -242t-56.5 -255.5q0 -221 148.5 -367t380.5 -146q168 0 324 84l40 -94q-171 -93 -368 -93zM784 229q90 0 168.5 56.5t99.5 170.5l17 94l-197 -37
q-124 -23 -171 -71t-47 -112q0 -51 35 -76t95 -25z" />
    <glyph glyph-name="A" unicode="A" horiz-adv-x="1288" 
d="M1010 0l-64 351h-648l-189 -351h-144l760 1394h159l268 -1394h-142zM364 475h559l-141 776z" />
    <glyph glyph-name="B" unicode="B" horiz-adv-x="1229" 
d="M885 719q107 -30 163.5 -104t56.5 -191q0 -65 -15.5 -124t-53.5 -115t-95.5 -96t-148 -64.5t-205.5 -24.5h-459l245 1394h348q398 0 398 -304q0 -127 -58 -222.5t-176 -148.5zM989 1073q0 46 -11 79t-40 61.5t-86.5 43t-144.5 14.5h-226l-87 -504h259q153 0 244.5 82.5
t91.5 223.5zM580 124q203 0 300 82.5t97 215.5q0 109 -66 168.5t-193 59.5h-344l-91 -526h297z" />
    <glyph glyph-name="C" unicode="C" horiz-adv-x="1481" 
d="M725 -19q-262 0 -423 152t-161 416q0 133 36.5 260t108.5 236t169.5 191.5t227.5 129.5t275 47q201 0 346 -93.5t201 -260.5l-130 -48q-45 130 -156.5 199.5t-265.5 69.5q-150 0 -279 -61t-215 -162t-134.5 -231t-48.5 -269q0 -211 125 -327t329 -116q158 0 299 72.5
t233 203.5l116 -62q-113 -166 -285.5 -256.5t-367.5 -90.5z" />
    <glyph glyph-name="D" unicode="D" horiz-adv-x="1397" 
d="M128 0l245 1394h424q260 0 397 -143.5t137 -386.5q0 -119 -27 -237t-87.5 -232t-148 -201t-218.5 -140.5t-289 -53.5h-433zM285 126h286q130 0 237 46t176.5 121t117.5 173t69 197.5t21 199.5q0 191 -102.5 298.5t-306.5 107.5h-296z" />
    <glyph glyph-name="E" unicode="E" horiz-adv-x="1040" 
d="M1077 1269h-585l-90 -511h513l-22 -124h-513l-90 -508h585l-22 -126h-725l245 1394h726z" />
    <glyph glyph-name="F" unicode="F" horiz-adv-x="1006" 
d="M1080 1269h-588l-90 -509h515l-24 -126h-513l-112 -634h-140l245 1394h729z" />
    <glyph glyph-name="G" unicode="G" horiz-adv-x="1585" 
d="M721 -19q-261 0 -421.5 149t-160.5 412q0 168 58 324.5t161.5 278.5t259 195t338.5 73q192 0 333 -84t202 -243l-126 -58q-48 128 -156.5 191.5t-257.5 63.5q-152 0 -281 -62t-214.5 -165.5t-133 -235.5t-47.5 -273q0 -210 124 -324t332 -114q215 0 374 123t219 346
l-504 -3l21 119h640l-123 -694h-115l53 285q-97 -147 -245 -225.5t-330 -78.5z" />
    <glyph glyph-name="H" unicode="H" horiz-adv-x="1447" 
d="M1260 1394h135l-246 -1394h-135l112 636h-749l-113 -636h-136l245 1394h138l-112 -634h749z" />
    <glyph glyph-name="I" unicode="I" horiz-adv-x="561" 
d="M128 0l245 1394h135l-245 -1394h-135z" />
    <glyph glyph-name="J" unicode="J" horiz-adv-x="907" 
d="M237 -19q-148 0 -273 80l73 111q82 -63 199 -63q128 0 218.5 87.5t114.5 229.5l171 968h135l-177 -1000q-33 -190 -158.5 -301.5t-302.5 -111.5z" />
    <glyph glyph-name="K" unicode="K" horiz-adv-x="1222" 
d="M624 729v-4l463 -725h-165l-414 667h-128l-117 -667h-135l245 1394h135l-106 -602h131l604 602h173z" />
    <glyph glyph-name="L" unicode="L" horiz-adv-x="892" 
d="M287 126h499l-22 -126h-636l245 1394h135z" />
    <glyph glyph-name="M" unicode="M" horiz-adv-x="1804" 
d="M1529 1394h171l-144 -1394h-129l116 1185l-687 -1185h-76l-270 1180l-303 -1180h-131l349 1394h165l265 -1158z" />
    <glyph glyph-name="N" unicode="N" horiz-adv-x="1491" 
d="M1305 1394h134l-246 -1394h-130l-596 1176l-208 -1176h-131l245 1394h128l597 -1174z" />
    <glyph glyph-name="O" unicode="O" horiz-adv-x="1604" 
d="M725 -19q-262 0 -423 152t-161 416q0 133 36.5 260t108.5 236t169.5 191.5t227.5 129.5t275 47q259 0 420.5 -152t161.5 -414q0 -111 -26.5 -218.5t-75 -203.5t-121 -177.5t-161.5 -140.5t-199.5 -92.5t-231.5 -33.5zM730 112q120 0 227.5 40t188 110t139.5 161.5t89 198
t30 217.5q0 209 -124.5 325t-326.5 116q-151 0 -280 -61.5t-215 -163t-134 -232t-48 -268.5q0 -211 125 -327t329 -116z" />
    <glyph glyph-name="P" unicode="P" horiz-adv-x="1219" 
d="M818 1394q132 0 224 -51t134.5 -135.5t42.5 -194.5q0 -211 -132.5 -333t-401.5 -122h-324l-98 -558h-135l245 1394h445zM680 680q112 0 191 23t124.5 67.5t66 103t20.5 137.5q0 121 -69.5 192t-217.5 71h-308l-104 -594h297z" />
    <glyph glyph-name="Q" unicode="Q" horiz-adv-x="1622" 
d="M1542 847q0 -195 -78.5 -373.5t-219.5 -300.5l196 -248l-133 -40l-166 212q-188 -116 -416 -116q-263 0 -424 152t-161 416q0 133 36.5 260t108.5 236t169.5 191.5t227.5 129.5t276 47q260 0 422 -152t162 -414zM274 554q0 -212 125.5 -328.5t329.5 -116.5q121 0 229 40
t188.5 110.5t139.5 162.5t89 199t30 218q0 209 -124.5 325t-327.5 116q-151 0 -281 -61.5t-215.5 -163.5t-134 -232.5t-48.5 -268.5z" />
    <glyph glyph-name="R" unicode="R" horiz-adv-x="1209" 
d="M1166 1081q0 -50 -11.5 -102.5t-40 -109t-71 -103t-111 -81t-152.5 -45.5l263 -640h-148l-248 635h-271l-112 -635h-136l245 1394h441q174 0 263 -86.5t89 -226.5zM487 1271l-92 -526h290q81 0 145.5 24t102 59.5t62 81t33 84.5t8.5 74q0 95 -62 149t-187 54h-300z" />
    <glyph glyph-name="S" unicode="S" horiz-adv-x="1226" 
d="M575 -19q-219 0 -355.5 97.5t-146.5 262.5l139 26q9 -121 111.5 -192.5t258.5 -71.5q169 0 276 72.5t107 200.5q0 139 -129 209q-61 32 -214 73l-1 1h-1h-1h-1l-1 1h-2q-51 14 -83.5 23.5t-77.5 26.5t-73 34t-60 44t-49.5 58t-29.5 73.5t-12 93.5q0 172 141.5 286
t351.5 114q198 0 330.5 -86t140.5 -245l-134 -28q-6 79 -55.5 134t-121.5 79t-159 24q-152 0 -255.5 -77.5t-103.5 -187.5q0 -36 9 -66.5t22 -52.5t38.5 -41.5t46 -31.5t58.5 -25t62 -20t69 -19q174 -45 248 -83q166 -84 182 -254q2 -20 2 -40q0 -129 -69 -223.5
t-187.5 -141.5t-270.5 -47z" />
    <glyph glyph-name="T" unicode="T" horiz-adv-x="955" 
d="M1073 1394l-22 -125h-367l-224 -1269h-135l224 1269h-368l22 125h870z" />
    <glyph glyph-name="U" unicode="U" horiz-adv-x="1357" 
d="M597 -19q-192 0 -309.5 104t-117.5 279q0 52 9 94l165 936h136l-163 -928q-9 -40 -9 -87q0 -132 79.5 -202t212.5 -70q160 0 281.5 98t152.5 272l162 917h135l-166 -947q-25 -142 -108.5 -249t-202.5 -162t-257 -55z" />
    <glyph glyph-name="V" unicode="V" horiz-adv-x="1253" 
d="M1218 1394h145l-757 -1394h-131l-264 1394h137l222 -1216z" />
    <glyph glyph-name="W" unicode="W" horiz-adv-x="1954" 
d="M387 0l-167 1394h140l141 -1184l573 1184h124l150 -1184l566 1184h140l-657 -1394h-146l-154 1152l-564 -1152h-146z" />
    <glyph glyph-name="X" unicode="X" horiz-adv-x="1342" 
d="M-39 0l674 729l-395 665h159l331 -572l532 572h168l-635 -665l413 -729h-165l-340 629l-566 -629h-176z" />
    <glyph glyph-name="Y" unicode="Y" horiz-adv-x="1124" 
d="M1250 1394l-591 -732l-116 -662h-137l117 667l-328 727h152l263 -606l476 606h164z" />
    <glyph glyph-name="Z" unicode="Z" horiz-adv-x="1193" 
d="M1248 1394l-19 -115l-1038 -1153h864l-22 -126h-1038l19 114l1043 1155h-835l22 125h1004z" />
    <glyph glyph-name="bracketleft" unicode="[" horiz-adv-x="592" 
d="M-8 -512l361 2048h382l-17 -103h-262l-326 -1842h263l-19 -103h-382z" />
    <glyph glyph-name="backslash" unicode="\" horiz-adv-x="1423" 
d="M1159 -360l-990 1896h131l991 -1896h-132z" />
    <glyph glyph-name="bracketright" unicode="]" horiz-adv-x="593" 
d="M-134 -512l19 103h262l326 1842h-263l17 103h382l-361 -2048h-382z" />
    <glyph glyph-name="asciicircum" unicode="^" horiz-adv-x="1340" 
d="M1208 264h-116l-279 1007l-635 -1007h-122l711 1131h128z" />
    <glyph glyph-name="underscore" unicode="_" horiz-adv-x="1352" 
d="M59 -111l20 111h1024l-20 -111h-1024z" />
    <glyph glyph-name="grave" unicode="`" horiz-adv-x="451" 
d="M415 1238l-178 256l86 57l192 -313h-100z" />
    <glyph glyph-name="a" unicode="a" horiz-adv-x="1196" 
d="M980 966h130l-171 -966h-125l30 202q-68 -102 -171.5 -162t-215.5 -60q-166 0 -271 110t-105 292q0 86 24.5 173.5t72 164t111.5 136t148.5 94.5t177.5 35q121 0 208 -64.5t119 -171.5zM487 98q73 0 141 29t118.5 78t88 109.5t57 126t19.5 126.5q0 131 -76.5 216.5
t-199.5 85.5q-74 0 -141.5 -28t-117.5 -76t-87.5 -109t-56.5 -129t-19 -134q0 -134 76 -214.5t198 -80.5z" />
    <glyph glyph-name="b" unicode="b" horiz-adv-x="1195" 
d="M737 985q165 0 270.5 -110.5t105.5 -291.5q0 -108 -39.5 -215.5t-107.5 -193.5t-170 -140t-217 -54q-123 0 -210 65.5t-119 173.5l-38 -219h-129l270 1536h130l-133 -770q69 101 171 160t216 59zM555 98q123 0 223 73.5t152 181.5t52 221q0 135 -76 215t-200 80
q-90 0 -171 -44.5t-135 -113.5t-85.5 -152.5t-31.5 -162.5q0 -131 75.5 -214.5t196.5 -83.5z" />
    <glyph glyph-name="c" unicode="c" horiz-adv-x="1059" 
d="M477 -17q-179 0 -288.5 109t-109.5 292q0 112 40 219.5t110.5 192.5t176.5 137t229 52q155 0 258 -82.5t126 -226.5l-125 -18q-19 102 -89 158t-173 56q-94 0 -175 -43.5t-134 -113.5t-83 -156.5t-30 -173.5q0 -133 74 -210.5t195 -77.5q107 0 201.5 58.5t150.5 161.5
l122 -32q-73 -143 -200.5 -222.5t-275.5 -79.5z" />
    <glyph glyph-name="d" unicode="d" horiz-adv-x="1194" 
d="M1080 1536h130l-271 -1536h-128l32 201q-68 -102 -171.5 -161.5t-214.5 -59.5q-166 0 -271 110t-105 292q0 86 24.5 173.5t72 164t111.5 136t148.5 94.5t177.5 35q122 0 209 -64.5t118 -171.5zM489 98q91 0 172 44.5t134 114t84 151t31 158.5q0 133 -76.5 218t-198.5 85
t-221 -73.5t-150 -181t-51 -220.5q0 -135 76.5 -215.5t199.5 -80.5z" />
    <glyph glyph-name="e" unicode="e" horiz-adv-x="1079" 
d="M634 985q172 0 271.5 -94.5t99.5 -270.5q0 -61 -11 -120l-9 -35h-773q-7 -43 -7 -93q0 -135 76.5 -206t197.5 -71q97 0 186.5 52.5t149.5 141.5l113 -37q-76 -127 -195.5 -199t-253.5 -72q-180 0 -288 104.5t-108 288.5q0 93 24 182t71.5 166.5t113 136t154 92.5
t188.5 34zM633 880q-146 0 -248 -88t-148 -226h637q5 30 5 67q0 123 -65.5 185t-180.5 62z" />
    <glyph glyph-name="f" unicode="f" horiz-adv-x="585" 
d="M635 1556q60 0 120 -22l-12 -107q-39 20 -84 20q-65 0 -114 -45t-62 -125l-55 -311h231l-19 -107h-231l-152 -859h-129l151 859h-186l19 107h186l57 322q22 125 97 196.5t183 71.5z" />
    <glyph glyph-name="g" unicode="g" horiz-adv-x="1183" 
d="M968 966h129l-163 -930q-41 -235 -182 -365.5t-352 -130.5q-341 0 -414 298l116 51q43 -235 296 -235q162 0 268 104t136 282l33 195q-63 -95 -167.5 -152.5t-216.5 -57.5q-163 0 -268 110.5t-105 284.5q0 146 72.5 277t194 209.5t258.5 78.5q120 0 209 -63t119 -164z
M482 141q106 0 203 63t155.5 165t58.5 211q0 124 -76.5 207.5t-198.5 83.5q-109 0 -205.5 -63t-153.5 -165t-57 -213q0 -127 77 -208t197 -81z" />
    <glyph glyph-name="h" unicode="h" horiz-adv-x="1048" 
d="M661 985q122 0 197.5 -68.5t75.5 -191.5q0 -24 -8 -80l-114 -645h-131l111 628q6 38 6 68q0 90 -48.5 132.5t-128.5 42.5q-99 0 -180 -60t-114 -170l-113 -641h-131l270 1536h131l-123 -701q55 72 132.5 111t167.5 39z" />
    <glyph glyph-name="i" unicode="i" horiz-adv-x="474" 
d="M383 1265q-41 0 -67 29.5t-22 70.5q4 42 36.5 71t74.5 29q41 0 68 -29.5t21 -70.5q-5 -41 -38 -70.5t-73 -29.5zM84 0l171 968h135l-171 -968h-135z" />
    <glyph glyph-name="j" unicode="j" horiz-adv-x="475" 
d="M383 1265q-41 0 -67 29.5t-22 70.5q4 42 36.5 71t74.5 29q41 0 68 -29.5t21 -70.5q-5 -41 -38 -70.5t-73 -29.5zM-223 -452l20 121q72 0 116.5 14t78.5 54.5t54.5 103.5t39.5 171l169 956h136l-170 -966q-46 -257 -143.5 -355.5t-300.5 -98.5z" />
    <glyph glyph-name="k" unicode="k" horiz-adv-x="955" 
d="M978 966l-480 -443l362 -523h-161l-321 474h-80l-84 -474h-131l270 1536h132l-168 -955h90l404 385h167z" />
    <glyph glyph-name="l" unicode="l" horiz-adv-x="469" 
d="M83 0l270 1536h132l-271 -1536h-131z" />
    <glyph glyph-name="m" unicode="m" horiz-adv-x="1542" 
d="M1174 985q114 0 184.5 -65t70.5 -180q0 -22 -8 -76l-117 -664h-131l113 643q6 35 6 64q0 83 -43.5 123.5t-115.5 40.5q-93 0 -163.5 -62.5t-94.5 -177.5l-112 -631h-134l111 634q6 38 6 68q0 85 -43 127t-117 42q-95 0 -168 -67t-93 -188h-1l-109 -616h-131l171 966h131
l-23 -131q52 71 123.5 110.5t153.5 39.5q89 0 152 -43.5t84 -124.5q54 80 131.5 124t166.5 44z" />
    <glyph glyph-name="n" unicode="n" horiz-adv-x="1050" 
d="M663 985q122 0 197.5 -68.5t75.5 -191.5q0 -24 -8 -80l-115 -645h-131l112 628q6 38 6 67q0 91 -48.5 133.5t-130.5 42.5q-101 0 -183 -64t-112 -179l-111 -628h-131l171 966h131l-23 -131q55 72 132.5 111t167.5 39z" />
    <glyph glyph-name="o" unicode="o" horiz-adv-x="1121" 
d="M481 -19q-178 0 -289 108.5t-111 291.5q0 90 25 178t73.5 164.5t115 135t155.5 92.5t189 34q180 0 290.5 -108.5t110.5 -291.5q0 -113 -40 -221t-111 -193t-177.5 -137.5t-230.5 -52.5zM484 95q93 0 174.5 43t135.5 112.5t85 155.5t31 173q0 134 -76 213.5t-199 79.5
q-94 0 -175.5 -43.5t-134.5 -113.5t-83 -156t-30 -173q0 -134 74.5 -212.5t197.5 -78.5z" />
    <glyph glyph-name="p" unicode="p" horiz-adv-x="1196" 
d="M737 985q166 0 271 -108t105 -289q0 -88 -24 -176t-71.5 -165.5t-111 -137t-148.5 -94.5t-179 -35q-121 0 -208 65t-119 171l-123 -709h-131l257 1459h128l-32 -200q69 101 171.5 160t214.5 59zM560 98q74 0 141 28t117 75t87.5 108t56.5 129.5t19 136.5
q0 135 -76.5 213.5t-196.5 78.5q-92 0 -173.5 -44t-135.5 -112.5t-85 -151t-31 -161.5q0 -132 77 -216t200 -84z" />
    <glyph glyph-name="q" unicode="q" horiz-adv-x="1193" 
d="M981 966h129l-257 -1459h-131l119 690q-67 -99 -169.5 -158t-212.5 -59q-166 0 -271 108t-105 290q0 112 39 221t107 194.5t170 138.5t218 53q120 0 208 -65t118 -171zM486 98q92 0 173.5 44t135.5 112.5t85 150.5t31 161q0 132 -77 216.5t-200 84.5q-122 0 -220 -72
t-148.5 -180t-50.5 -226q0 -134 76 -212.5t195 -78.5z" />
    <glyph glyph-name="r" unicode="r" horiz-adv-x="611" 
d="M355 794q51 84 139 132.5t189 50.5l-26 -135q-134 0 -228.5 -79.5t-121.5 -237.5l-93 -525h-130l171 966h129z" />
    <glyph glyph-name="s" unicode="s" horiz-adv-x="892" 
d="M378 -19q-155 0 -244.5 72.5t-87.5 199.5l124 27q-4 -90 52.5 -142.5t157.5 -52.5q108 0 180 55t72 149q0 28 -11.5 50.5t-27.5 37t-49 28.5t-59.5 22t-74.5 21q-46 12 -78 22.5t-68.5 29.5t-59 41t-37.5 56t-15 77q0 143 103.5 226t261.5 83q139 0 224 -65t84 -189
l-119 -24q5 87 -49 131.5t-138 44.5q-100 0 -170 -53.5t-70 -142.5q0 -27 12 -48.5t27 -34.5t46 -25.5t52 -18.5t63 -17q50 -12 83.5 -22.5t74.5 -30t65 -43t41 -60.5t17 -83q0 -150 -107.5 -235.5t-274.5 -85.5z" />
    <glyph glyph-name="t" unicode="t" horiz-adv-x="635" 
d="M379 0q-97 0 -153 52t-56 143q0 38 5 58l107 606h-201l19 107h72q62 0 104.5 36t53.5 99l34 192h125l-58 -327h231l-18 -107h-232l-107 -604q-2 -13 -2 -36q0 -53 31 -81.5t84 -28.5h93l-19 -109h-113z" />
    <glyph glyph-name="u" unicode="u" horiz-adv-x="1050" 
d="M834 966h131l-170 -966h-127l21 135q-55 -73 -133 -113.5t-169 -40.5q-123 0 -198 68.5t-75 191.5q0 35 8 80l114 645h131l-110 -623q-7 -36 -7 -69q0 -90 49 -133.5t130 -43.5q111 0 194 72.5t105 200.5h1z" />
    <glyph glyph-name="v" unicode="v" horiz-adv-x="926" 
d="M843 966h146l-557 -966h-109l-215 966h136l156 -810z" />
    <glyph glyph-name="w" unicode="w" horiz-adv-x="1508" 
d="M1421 966h141l-502 -966h-116l-138 785l-416 -785h-117l-155 966h137l116 -783l414 783h101l137 -787z" />
    <glyph glyph-name="x" unicode="x" horiz-adv-x="952" 
d="M-56 0l451 484l-275 482h156l213 -394l356 394h162l-451 -482l275 -484h-154l-211 394l-357 -394h-165z" />
    <glyph glyph-name="y" unicode="y" horiz-adv-x="920" 
d="M834 966h145l-797 -1421h-142l269 480l-198 941h145l148 -797z" />
    <glyph glyph-name="z" unicode="z" horiz-adv-x="854" 
d="M885 966l-692 -855h544l-19 -111h-763l688 855h-506l19 111h729z" />
    <glyph glyph-name="braceleft" unicode="{" horiz-adv-x="564" 
d="M255 -511q-93 0 -142 65t-32 164l78 443q10 57 14 91.5t2.5 71.5t-14 60t-36 45t-61.5 40l9 91q104 43 146 111t67 205l77 440q17 99 84 159.5t161 60.5h81l-16 -91h-51q-56 0 -94 -45t-51 -122l-77 -436q-11 -61 -23.5 -101t-37.5 -86t-67.5 -82t-105.5 -65
q66 -35 97 -89.5t30 -114.5t-12 -132l-77 -438q-15 -77 4 -114t78 -37h58l-15 -94h-74z" />
    <glyph glyph-name="bar" unicode="|" horiz-adv-x="602" 
d="M116 -307l324 1843h93l-324 -1843h-93z" />
    <glyph glyph-name="braceright" unicode="}" horiz-adv-x="564" 
d="M-114 -511l15 94h52q58 0 95 42.5t50 119.5l77 437q12 61 24 101t36.5 86.5t67.5 82.5t105 64q-65 36 -96 90t-30 114.5t11 132.5l77 435q28 157 -81 157h-58l15 91h74q93 0 142 -65.5t32 -165.5l-79 -440q-10 -58 -13.5 -92.5t-2 -71.5t13 -60t35 -45.5t61.5 -40.5
l-7 -91q-105 -43 -146.5 -109.5t-67.5 -204.5l-78 -443q-16 -98 -83 -158t-160 -60h-81z" />
    <glyph glyph-name="asciitilde" unicode="~" horiz-adv-x="1398" 
d="M928 362q-38 0 -74 10.5t-60.5 24t-52.5 38t-41.5 38.5t-36.5 41q-43 51 -80 75.5t-83 24.5q-81 0 -131 -66t-52 -164h-109q-4 151 78 245t215 94q80 0 136.5 -37.5t116.5 -111.5q30 -36 48.5 -54t50 -34t67.5 -16q79 0 130.5 63t49.5 164h109q7 -144 -74 -239.5
t-207 -95.5z" />
    <glyph glyph-name="exclamdown" unicode="&#xa1;" horiz-adv-x="604" 
d="M366 789q-44 0 -71 32t-20 77q8 38 39 64.5t69 26.5q43 0 70 -32.5t20 -76.5q-7 -39 -38.5 -65t-68.5 -26zM75 -426l185 1016h122l-174 -1016h-133z" />
    <glyph glyph-name="cent" unicode="&#xa2;" horiz-adv-x="1175" 
d="M786 1200q-105 0 -202 -55.5t-166.5 -157t-91.5 -226.5q-33 -183 51.5 -302t238.5 -119q95 0 183.5 48.5t155.5 131.5l88 -84q-172 -197 -396 -214l-39 -222h-89l39 224q-191 21 -294 177t-63 378q39 221 195.5 372.5t354.5 166.5l38 218h90l-39 -220
q106 -12 186.5 -69.5t128.5 -149.5l-104 -70q-37 81 -106 127t-159 46z" />
    <glyph glyph-name="sterling" unicode="&#xa3;" horiz-adv-x="1296" 
d="M68 0l18 97l56 5q47 3 79 30.5t40 73.5l75 421h-156l18 112h157l45 250q32 189 171.5 308t329.5 119q145 0 237 -80.5t92 -215.5q0 -64 -24 -138l-124 -17q29 85 29 131q0 90 -61.5 141t-155.5 51q-140 0 -241 -85t-126 -224l-43 -240h347l-18 -112h-347l-89 -502h704
l-22 -125h-991z" />
    <glyph glyph-name="currency" unicode="&#xa4;" horiz-adv-x="1349" 
d="M274 297l-66 80l123 103q-52 87 -52 196q0 191 145 336l-85 96l86 80l85 -102q130 93 278 93q154 0 253 -96l121 104l67 -75l-122 -105q54 -88 54 -197q0 -187 -145 -337l81 -96l-83 -80l-86 102q-124 -91 -276 -91q-154 0 -256 96zM656 413q90 0 167 36t126 93.5
t76.5 127t27.5 139.5q0 113 -69 188t-199 75q-90 0 -167.5 -36.5t-127 -94.5t-77 -128.5t-27.5 -140.5q0 -111 69 -185t201 -74z" />
    <glyph glyph-name="yen" unicode="&#xa5;" horiz-adv-x="1384" 
d="M538 0l47 263h-424l17 100h424l38 220h-424l17 100h413l-340 712h155l282 -608l496 608h164l-592 -712h406l-18 -100h-422l-38 -220h422l-17 -100h-422l-47 -263h-137z" />
    <glyph glyph-name="brokenbar" unicode="&#xa6;" horiz-adv-x="602" 
d="M310 799l130 737h93l-129 -737h-94zM116 -307l129 737h93l-129 -737h-93z" />
    <glyph glyph-name="section" unicode="&#xa7;" horiz-adv-x="1317" 
d="M712 774q110 -27 170.5 -47.5t137 -65t103 -116t9.5 -171.5q-26 -141 -125 -234q68 -87 44 -225q-17 -96 -68 -169.5t-126.5 -117t-164.5 -65t-190 -21.5q-201 0 -323.5 95.5t-130.5 257.5l130 24q7 -121 98 -191t232 -70q102 0 186.5 25t149.5 89t80 161q10 64 -8.5 109
t-78 78t-99.5 47t-135 41q-13 4 -20 6q-77 19 -127.5 35t-109 46.5t-89.5 67t-46.5 95t-2.5 132.5q23 144 130 233q-75 86 -50 226q16 91 64.5 162t117.5 114t149 65t167 22q193 0 314 -84t129 -241l-126 -26q-9 117 -96 176t-219 59q-85 0 -160.5 -25.5t-137 -87.5
t-77.5 -153q-8 -48 4 -85t38 -62t67.5 -45t86.5 -34t101 -30h2zM1006 392q7 43 -1 78t-29 60t-51 45.5t-69 36t-80.5 28.5t-87.5 26q-17 5 -26 7q-150 38 -224 75q-85 -67 -105 -177q-11 -59 4.5 -100.5t71.5 -72t92.5 -43.5t128.5 -39q1 -1 2 -1q199 -49 281 -96
q76 68 93 173z" />
    <glyph glyph-name="dieresis" unicode="&#xa8;" horiz-adv-x="826" 
d="M372 1265q-41 0 -67 30t-21 70q4 42 36.5 71t73.5 29t67.5 -29t22.5 -71q-4 -40 -37.5 -70t-74.5 -30zM727 1265q-41 0 -67.5 30t-21.5 70q4 42 37 71t74 29t67.5 -29t22.5 -71q-5 -41 -38.5 -70.5t-73.5 -29.5z" />
    <glyph glyph-name="copyright" unicode="&#xa9;" horiz-adv-x="1756" 
d="M915 -20q-196 0 -362 97t-263 264t-97 363q0 147 57.5 281t154 231t230 154.5t280.5 57.5q197 0 364 -97.5t264.5 -264t97.5 -362.5q0 -147 -57.5 -281t-155 -231t-232 -154.5t-281.5 -57.5zM915 72q173 0 318.5 84t229.5 229.5t84 318.5q0 172 -84 317t-229.5 229.5
t-318.5 84.5q-172 0 -316.5 -84.5t-228.5 -229.5t-84 -317q0 -173 84 -318.5t228.5 -229.5t316.5 -84zM915 284q-112 0 -207 55.5t-150.5 150.5t-55.5 208q0 172 120.5 292.5t292.5 120.5q88 0 170 -36.5t139 -101.5l-73 -67q-44 51 -106.5 79t-129.5 28
q-130 0 -221.5 -91.5t-91.5 -223.5t91.5 -223t221.5 -91q68 0 130 28t106 78l73 -68q-57 -65 -139 -101.5t-170 -36.5z" />
    <glyph glyph-name="ordfeminine" unicode="&#xaa;" horiz-adv-x="1011" 
d="M893 1536h92l-108 -614h-92l22 125q-49 -63 -118.5 -100.5t-150.5 -37.5q-118 0 -193.5 77.5t-75.5 194.5q0 146 110.5 256.5t253.5 110.5q86 0 146.5 -39.5t89.5 -108.5zM553 990q112 0 201 86t89 199q0 83 -54 136t-139 53q-116 0 -203.5 -86.5t-87.5 -196.5
q0 -85 54 -138t140 -53z" />
    <glyph glyph-name="guillemotleft" unicode="&#xab;" horiz-adv-x="929" 
d="M331 214l-247 377l375 377h125l-380 -377l242 -377h-115zM684 214l-246 377l374 377h125l-379 -377l242 -377h-116z" />
    <glyph glyph-name="logicalnot" unicode="&#xac;" horiz-adv-x="1653" 
d="M1310 328v524h-1112v116h1228v-640h-116z" />
    <glyph glyph-name="uni00AD" unicode="&#xad;" horiz-adv-x="1049" 
d="M169 502l20 116h717l-20 -116h-717z" />
    <glyph glyph-name="registered" unicode="&#xae;" horiz-adv-x="1756" 
d="M915 1428q197 0 364 -97.5t264.5 -264t97.5 -362.5q0 -147 -57.5 -281t-155 -231t-232 -154.5t-281.5 -57.5q-196 0 -362 97t-263 264t-97 363q0 147 57.5 281t154 231t230 154.5t280.5 57.5zM915 72q173 0 318.5 84t229.5 229.5t84 318.5q0 172 -84 317t-229.5 229.5
t-318.5 84.5q-172 0 -316.5 -84.5t-228.5 -229.5t-84 -317q0 -173 84 -318.5t228.5 -229.5t316.5 -84zM1228 893q0 -75 -41 -134.5t-109 -86.5l181 -402h-106l-170 384h-211v-384h-97v868h308q102 0 173.5 -72t71.5 -173zM772 740h202q67 0 112 43.5t45 108.5q0 66 -45 109
t-112 43h-202v-304z" />
    <glyph glyph-name="macron" unicode="&#xaf;" horiz-adv-x="972" 
d="M304 1263l16 91h641l-16 -91h-641z" />
    <glyph glyph-name="degree" unicode="&#xb0;" horiz-adv-x="944" 
d="M586 854q-117 0 -199 82.5t-82 198.5t82 198t199 82q116 0 198.5 -82t82.5 -198t-82.5 -198.5t-198.5 -82.5zM586 938q81 0 138.5 57.5t57.5 139.5q0 81 -57.5 139.5t-138.5 58.5t-139 -58.5t-58 -139.5q0 -82 57.5 -139.5t139.5 -57.5z" />
    <glyph glyph-name="plusminus" unicode="&#xb1;" horiz-adv-x="1277" 
d="M585 329v411h-410v116h410v412h117v-412h410v-116h-410v-411h-117zM166 3v118h928v-118h-928z" />
    <glyph glyph-name="acute" unicode="&#xb4;" horiz-adv-x="451" 
d="M187 1238l303 313l66 -57l-270 -256h-99z" />
    <glyph glyph-name="uni00B5" unicode="&#xb5;" horiz-adv-x="1311" 
d="M1077 968h123l-171 -968h-123l29 162q-69 -84 -164 -133t-196 -49q-88 0 -160 35t-118 97l-110 -624h-108l261 1480h125l-102 -579q-22 -125 48.5 -211t192.5 -86q127 0 234 85.5t136 206.5z" />
    <glyph glyph-name="paragraph" unicode="&#xb6;" horiz-adv-x="1152" 
d="M408 -307l178 1016h-68q-171 0 -254 92.5t-54 260.5q29 162 138 247.5t280 85.5h157l-299 -1702h-78zM678 -307l299 1702h81l-299 -1702h-81z" />
    <glyph glyph-name="periodcentered" unicode="&#xb7;" horiz-adv-x="590" 
d="M334 652q-38 0 -61.5 27.5t-16.5 66.5q5 31 31.5 53t58.5 22q36 0 59.5 -28t16.5 -65q-5 -32 -31 -54t-57 -22z" />
    <glyph glyph-name="cedilla" unicode="&#xb8;" horiz-adv-x="591" 
d="M106 -532q-68 0 -129 35.5t-84 87.5l78 34q19 -33 62 -56t86 -23q53 0 96.5 37t53.5 91q10 57 -21.5 89.5t-91.5 32.5q-44 0 -86 -18l-57 45l145 219h80l-118 -184q49 7 60 7q88 0 135 -52.5t33 -138.5q-16 -87 -85.5 -146.5t-156.5 -59.5z" />
    <glyph glyph-name="ordmasculine" unicode="&#xba;" horiz-adv-x="938" 
d="M552 909q-124 0 -204.5 78.5t-80.5 196.5q0 144 115.5 254t263.5 110q126 0 206.5 -77.5t80.5 -193.5q0 -149 -115 -258.5t-266 -109.5zM551 990q111 0 200.5 86.5t89.5 198.5q0 81 -55 135t-139 54q-115 0 -202.5 -87.5t-87.5 -196.5q0 -82 54.5 -136t139.5 -54z" />
    <glyph glyph-name="guillemotright" unicode="&#xbb;" horiz-adv-x="925" 
d="M25 214l381 377l-243 377h115l248 -377l-376 -377h-125zM379 214l381 377l-243 377h115l248 -377l-376 -377h-125z" />
    <glyph glyph-name="onequarter" unicode="&#xbc;" horiz-adv-x="1710" 
d="M1347 1536h112l-1137 -1536h-114zM324 614l145 818l-257 -174l16 101l264 177h93l-163 -922h-98zM1573 922l-114 -646h104l-15 -81h-104l-34 -195h-95l34 195h-441l12 72l527 655h126zM1363 276l97 551l-436 -551h339z" />
    <glyph glyph-name="onehalf" unicode="&#xbd;" horiz-adv-x="1788" 
d="M1348 1536h112l-1137 -1536h-114zM326 614l144 818l-259 -174l19 101l263 177h93l-162 -922h-98zM1683 667q-8 -58 -37 -110t-99 -121.5t-171 -149t-272 -203.5h507l-14 -83h-624l12 95q253 190 375 292t169.5 162.5t58.5 120.5q16 87 -24 131.5t-115 44.5
q-85 0 -148.5 -52.5t-80.5 -135.5l-99 7q25 122 117 196.5t212 74.5q119 0 185 -73.5t48 -195.5z" />
    <glyph glyph-name="threequarters" unicode="&#xbe;" horiz-adv-x="1915" 
d="M632 1125q54 -28 83.5 -79t32.5 -108.5t-18 -117.5t-61.5 -108t-106.5 -79t-145 -31q-123 0 -195 80.5t-52 195.5l98 -11q-13 -77 30.5 -126.5t118.5 -49.5q114 0 184 90q59 74 52 158q-8 87 -84 118q-34 14 -77 14h-71l14 84h59q94 0 151 79q49 67 37 137q-11 71 -81 86
q-16 4 -35 4q-67 0 -119.5 -44.5t-65.5 -111.5l-96 12q18 101 97 166t181 65q65 0 112.5 -24t70.5 -62.5t27.5 -86.5t-10 -94t-48.5 -88.5t-83 -67.5zM1552 1536h112l-1137 -1536h-114zM1778 922l-114 -646h104l-15 -81h-103l-34 -195h-96l34 195h-440l11 72l527 655h126z
M1568 276l97 551l-436 -551h339z" />
    <glyph glyph-name="questiondown" unicode="&#xbf;" horiz-adv-x="985" 
d="M543 788q-43 0 -69.5 33t-18.5 76q7 38 37.5 64.5t66.5 26.5q44 0 70 -32t19 -77q-7 -38 -38 -64.5t-67 -26.5zM333 -448q-176 0 -268.5 116.5t-61.5 299.5q25 138 96 223t165 125q73 27 111.5 61.5t49.5 95.5l20 119h120l-23 -137q-9 -50 -27.5 -87t-51.5 -65.5
t-66.5 -47.5t-89.5 -45q-152 -63 -187 -259q-23 -128 37.5 -206t177.5 -78q121 0 217 89t119 223q8 42 8 74l113 -15q-1 -45 -9 -96q-31 -172 -157 -281t-293 -109z" />
    <glyph glyph-name="Agrave" unicode="&#xc0;" horiz-adv-x="1288" 
d="M881 1544h-100l-178 256l86 57zM1010 0l-64 351h-648l-189 -351h-144l760 1394h159l268 -1394h-142zM364 475h559l-141 776z" />
    <glyph glyph-name="Aacute" unicode="&#xc1;" horiz-adv-x="1288" 
d="M1140 1800l-269 -256h-100l303 313zM1010 0l-64 351h-648l-189 -351h-144l760 1394h159l268 -1394h-142zM364 475h559l-141 776z" />
    <glyph glyph-name="Acircumflex" unicode="&#xc2;" horiz-adv-x="1288" 
d="M870 1778l-205 -234h-97l257 294h112l154 -294h-99zM1010 0l-64 351h-648l-189 -351h-144l760 1394h159l268 -1394h-142zM364 475h559l-141 776z" />
    <glyph glyph-name="Atilde" unicode="&#xc3;" horiz-adv-x="1288" 
d="M716 1708q-53 0 -94 -45.5t-54 -116.5h-79q19 105 85 173t154 68q110 0 160 -109q29 -68 101 -68q54 0 94 43.5t52 115.5h79q-18 -105 -83 -172t-154 -67q-114 0 -162 108q-30 70 -99 70zM725 1394h159l268 -1394h-142l-64 351h-648l-189 -351h-144zM364 475h559
l-141 776z" />
    <glyph glyph-name="Adieresis" unicode="&#xc4;" horiz-adv-x="1288" 
d="M654 1544q-38 0 -61.5 28.5t-17.5 66.5q8 40 41.5 68t72.5 28t62 -28t15 -68q-6 -38 -39.5 -66.5t-72.5 -28.5zM1006 1544q-39 0 -62 28t-17 67q8 40 41 68t72 28q40 0 63 -28t15 -68q-6 -38 -40 -66.5t-72 -28.5zM1010 0l-64 351h-648l-189 -351h-144l760 1394h159
l268 -1394h-142zM364 475h559l-141 776z" />
    <glyph glyph-name="Aring" unicode="&#xc5;" horiz-adv-x="1288" 
d="M836 1544q-78 0 -125.5 47t-48.5 122q-1 93 66.5 162t165.5 69q79 0 125.5 -47t46.5 -120q2 -92 -65.5 -162.5t-164.5 -70.5zM888 1875q-61 0 -106.5 -47t-45.5 -106q0 -47 30 -76t79 -29q61 0 105.5 44t44.5 105q0 47 -30 78t-77 31zM1010 0l-64 351h-648l-189 -351
h-144l760 1394h159l268 -1394h-142zM364 475h559l-141 776z" />
    <glyph glyph-name="AE" unicode="&#xc6;" horiz-adv-x="1693" 
d="M-35 0l773 1395h1014l-22 -127h-622l-90 -507h546l-23 -128h-546l-88 -505h622l-23 -128h-761l62 350h-503l-190 -350h-149zM372 477h459l138 790h-166z" />
    <glyph glyph-name="Ccedilla" unicode="&#xc7;" horiz-adv-x="1481" 
d="M730 114q158 0 299 72.5t233 203.5l116 -62q-110 -161 -276.5 -251.5t-355.5 -95.5l-79 -123q49 7 60 7q88 0 135 -52.5t33 -138.5q-16 -87 -85.5 -146.5t-156.5 -59.5q-68 0 -129 35.5t-84 87.5l78 34q19 -33 62 -56t86 -23q53 0 96.5 37t53.5 91q10 57 -21.5 89.5
t-91.5 32.5q-44 0 -86 -18l-57 45l106 160q-238 18 -381.5 168t-143.5 398q0 133 36.5 260t108.5 236t169.5 191.5t227.5 129.5t275 47q201 0 346 -93.5t201 -260.5l-130 -48q-45 130 -156.5 199.5t-265.5 69.5q-150 0 -279 -61t-215 -162t-134.5 -231t-48.5 -269
q0 -211 125 -327t329 -116z" />
    <glyph glyph-name="Egrave" unicode="&#xc8;" horiz-adv-x="1040" 
d="M815 1544h-100l-178 256l86 57zM1077 1269h-585l-90 -511h513l-22 -124h-513l-90 -508h585l-22 -126h-725l245 1394h726z" />
    <glyph glyph-name="Eacute" unicode="&#xc9;" horiz-adv-x="1040" 
d="M1074 1800l-269 -256h-100l303 313zM1077 1269h-585l-90 -511h513l-22 -124h-513l-90 -508h585l-22 -126h-725l245 1394h726z" />
    <glyph glyph-name="Ecircumflex" unicode="&#xca;" horiz-adv-x="1040" 
d="M804 1778l-205 -234h-97l257 294h112l154 -294h-99zM1077 1269h-585l-90 -511h513l-22 -124h-513l-90 -508h585l-22 -126h-725l245 1394h726z" />
    <glyph glyph-name="Edieresis" unicode="&#xcb;" horiz-adv-x="1040" 
d="M588 1544q-38 0 -61.5 28.5t-17.5 66.5q8 40 41.5 68t72.5 28t62 -28t15 -68q-6 -38 -39.5 -66.5t-72.5 -28.5zM940 1544q-39 0 -62 28t-17 67q8 40 41 68t72 28q40 0 63 -28t15 -68q-6 -38 -40 -66.5t-72 -28.5zM1077 1269h-585l-90 -511h513l-22 -124h-513l-90 -508
h585l-22 -126h-725l245 1394h726z" />
    <glyph glyph-name="Igrave" unicode="&#xcc;" horiz-adv-x="561" 
d="M418 1544l-178 256l86 57l192 -313h-100zM128 0l245 1394h135l-245 -1394h-135z" />
    <glyph glyph-name="Iacute" unicode="&#xcd;" horiz-adv-x="561" 
d="M408 1544l303 313l66 -57l-269 -256h-100zM128 0l245 1394h135l-245 -1394h-135z" />
    <glyph glyph-name="Icircumflex" unicode="&#xce;" horiz-adv-x="561" 
d="M302 1544h-97l257 294h112l154 -294h-99l-122 234zM128 0l245 1394h135l-245 -1394h-135z" />
    <glyph glyph-name="Idieresis" unicode="&#xcf;" horiz-adv-x="561" 
d="M291 1544q-38 0 -61.5 28.5t-17.5 66.5q8 40 41.5 68t72.5 28t62 -28t15 -68q-6 -38 -39.5 -66.5t-72.5 -28.5zM643 1544q-39 0 -62 28t-17 67q8 40 41 68t72 28t62.5 -28t15.5 -68q-6 -38 -40 -66.5t-72 -28.5zM128 0l245 1394h135l-245 -1394h-135z" />
    <glyph glyph-name="Eth" unicode="&#xd0;" horiz-adv-x="1397" 
d="M797 1394q260 0 397 -143.5t137 -386.5q0 -119 -27 -237t-87.5 -232t-148 -201t-218.5 -140.5t-289 -53.5h-433l114 651h-167l17 94h167l114 649h424zM571 126q130 0 237 46t176.5 121t117.5 173t69 197.5t21 199.5q0 191 -102.5 298.5t-306.5 107.5h-296l-93 -524h277
l-17 -94h-276l-93 -525h286z" />
    <glyph glyph-name="Ntilde" unicode="&#xd1;" horiz-adv-x="1491" 
d="M818 1708q-53 0 -94 -45.5t-54 -116.5h-79q19 105 85 173t154 68q110 0 160 -109q29 -68 101 -68q54 0 94 43.5t52 115.5h79q-18 -105 -83 -172t-154 -67q-114 0 -162 108q-30 70 -99 70zM1305 1394h134l-246 -1394h-130l-596 1176l-208 -1176h-131l245 1394h128
l597 -1174z" />
    <glyph glyph-name="Ograve" unicode="&#xd2;" horiz-adv-x="1604" 
d="M941 1544l-178 256l86 57l192 -313h-100zM725 -19q-262 0 -423 152t-161 416q0 133 36.5 260t108.5 236t169.5 191.5t227.5 129.5t275 47q259 0 420.5 -152t161.5 -414q0 -111 -26.5 -218.5t-75 -203.5t-121 -177.5t-161.5 -140.5t-199.5 -92.5t-231.5 -33.5zM730 112
q120 0 227.5 40t188 110t139.5 161.5t89 198t30 217.5q0 209 -124.5 325t-326.5 116q-151 0 -280 -61.5t-215 -163t-134 -232t-48 -268.5q0 -211 125 -327t329 -116z" />
    <glyph glyph-name="Oacute" unicode="&#xd3;" horiz-adv-x="1604" 
d="M931 1544l303 313l66 -57l-269 -256h-100zM725 -19q-262 0 -423 152t-161 416q0 133 36.5 260t108.5 236t169.5 191.5t227.5 129.5t275 47q259 0 420.5 -152t161.5 -414q0 -111 -26.5 -218.5t-75 -203.5t-121 -177.5t-161.5 -140.5t-199.5 -92.5t-231.5 -33.5zM730 112
q120 0 227.5 40t188 110t139.5 161.5t89 198t30 217.5q0 209 -124.5 325t-326.5 116q-151 0 -280 -61.5t-215 -163t-134 -232t-48 -268.5q0 -211 125 -327t329 -116z" />
    <glyph glyph-name="Ocircumflex" unicode="&#xd4;" horiz-adv-x="1604" 
d="M825 1544h-97l257 294h112l154 -294h-99l-122 234zM725 -19q-262 0 -423 152t-161 416q0 133 36.5 260t108.5 236t169.5 191.5t227.5 129.5t275 47q259 0 420.5 -152t161.5 -414q0 -111 -26.5 -218.5t-75 -203.5t-121 -177.5t-161.5 -140.5t-199.5 -92.5t-231.5 -33.5z
M730 112q120 0 227.5 40t188 110t139.5 161.5t89 198t30 217.5q0 209 -124.5 325t-326.5 116q-151 0 -280 -61.5t-215 -163t-134 -232t-48 -268.5q0 -211 125 -327t329 -116z" />
    <glyph glyph-name="Otilde" unicode="&#xd5;" horiz-adv-x="1604" 
d="M1137 1530q-114 0 -162 108q-30 70 -99 70q-53 0 -94 -45.5t-54 -116.5h-79q19 105 85 173t154 68q110 0 160 -109q29 -68 101 -68q54 0 94 43.5t52 115.5h79q-18 -105 -83 -172t-154 -67zM725 -19q-262 0 -423 152t-161 416q0 133 36.5 260t108.5 236t169.5 191.5
t227.5 129.5t275 47q259 0 420.5 -152t161.5 -414q0 -111 -26.5 -218.5t-75 -203.5t-121 -177.5t-161.5 -140.5t-199.5 -92.5t-231.5 -33.5zM730 112q120 0 227.5 40t188 110t139.5 161.5t89 198t30 217.5q0 209 -124.5 325t-326.5 116q-151 0 -280 -61.5t-215 -163
t-134 -232t-48 -268.5q0 -211 125 -327t329 -116z" />
    <glyph glyph-name="Odieresis" unicode="&#xd6;" horiz-adv-x="1604" 
d="M814 1544q-38 0 -61.5 28.5t-17.5 66.5q8 40 41.5 68t72.5 28t62 -28t15 -68q-6 -38 -39.5 -66.5t-72.5 -28.5zM1166 1544q-39 0 -62 28t-17 67q8 40 41 68t72 28q40 0 63 -28t15 -68q-6 -38 -40 -66.5t-72 -28.5zM725 -19q-262 0 -423 152t-161 416q0 133 36.5 260
t108.5 236t169.5 191.5t227.5 129.5t275 47q259 0 420.5 -152t161.5 -414q0 -111 -26.5 -218.5t-75 -203.5t-121 -177.5t-161.5 -140.5t-199.5 -92.5t-231.5 -33.5zM730 112q120 0 227.5 40t188 110t139.5 161.5t89 198t30 217.5q0 209 -124.5 325t-326.5 116
q-151 0 -280 -61.5t-215 -163t-134 -232t-48 -268.5q0 -211 125 -327t329 -116z" />
    <glyph glyph-name="multiply" unicode="&#xd7;" horiz-adv-x="1059" 
d="M274 286l-82 84l283 283l-283 284l82 81l285 -281l281 280l84 -80l-284 -284l284 -283l-84 -82l-281 283z" />
    <glyph glyph-name="Oslash" unicode="&#xd8;" horiz-adv-x="1604" 
d="M1324 1306q103 -73 159.5 -190t56.5 -269q0 -111 -26.5 -218.5t-75 -203.5t-121 -177.5t-161.5 -140.5t-199.5 -92.5t-231.5 -33.5q-159 0 -284 58l-107 -154l-83 48l107 154q-104 73 -160.5 191t-56.5 271q0 133 36.5 260t108.5 236t169.5 191.5t227.5 129.5t275 47
q158 0 283 -58l110 158l81 -52zM276 555q0 -238 160 -356l725 1042q-91 39 -208 39q-151 0 -280 -61.5t-215 -163t-134 -232t-48 -268.5zM730 112q120 0 227.5 40t188 110t139.5 161.5t89 198t30 217.5q0 235 -159 354l-725 -1042q91 -39 210 -39z" />
    <glyph glyph-name="Ugrave" unicode="&#xd9;" horiz-adv-x="1357" 
d="M813 1544l-178 256l86 57l192 -313h-100zM597 -19q-192 0 -309.5 104t-117.5 279q0 52 9 94l165 936h136l-163 -928q-9 -40 -9 -87q0 -132 79.5 -202t212.5 -70q160 0 281.5 98t152.5 272l162 917h135l-166 -947q-25 -142 -108.5 -249t-202.5 -162t-257 -55z" />
    <glyph glyph-name="Uacute" unicode="&#xda;" horiz-adv-x="1357" 
d="M803 1544l303 313l66 -57l-269 -256h-100zM597 -19q-192 0 -309.5 104t-117.5 279q0 52 9 94l165 936h136l-163 -928q-9 -40 -9 -87q0 -132 79.5 -202t212.5 -70q160 0 281.5 98t152.5 272l162 917h135l-166 -947q-25 -142 -108.5 -249t-202.5 -162t-257 -55z" />
    <glyph glyph-name="Ucircumflex" unicode="&#xdb;" horiz-adv-x="1357" 
d="M697 1544h-97l257 294h112l154 -294h-99l-122 234zM597 -19q-192 0 -309.5 104t-117.5 279q0 52 9 94l165 936h136l-163 -928q-9 -40 -9 -87q0 -132 79.5 -202t212.5 -70q160 0 281.5 98t152.5 272l162 917h135l-166 -947q-25 -142 -108.5 -249t-202.5 -162t-257 -55z
" />
    <glyph glyph-name="Udieresis" unicode="&#xdc;" horiz-adv-x="1357" 
d="M686 1544q-38 0 -61.5 28.5t-17.5 66.5q8 40 41.5 68t72.5 28t62 -28t15 -68q-6 -38 -39.5 -66.5t-72.5 -28.5zM1038 1544q-39 0 -62 28t-17 67q8 40 41 68t72 28q40 0 63 -28t15 -68q-6 -38 -40 -66.5t-72 -28.5zM597 -19q-192 0 -309.5 104t-117.5 279q0 52 9 94
l165 936h136l-163 -928q-9 -40 -9 -87q0 -132 79.5 -202t212.5 -70q160 0 281.5 98t152.5 272l162 917h135l-166 -947q-25 -142 -108.5 -249t-202.5 -162t-257 -55z" />
    <glyph glyph-name="Yacute" unicode="&#xdd;" horiz-adv-x="1124" 
d="M1057 1800l-269 -256h-100l303 313zM1250 1394l-591 -732l-116 -662h-137l117 667l-328 727h152l263 -606l476 606h164z" />
    <glyph glyph-name="Thorn" unicode="&#xde;" horiz-adv-x="1165" 
d="M743 1324q119 0 202 -24.5t129 -72t66 -107t20 -139.5q0 -70 -18.5 -138.5t-60.5 -134t-103 -115.5t-153 -80t-203 -30h-276l-85 -483h-133l268 1526h134l-36 -202h249zM635 608q87 0 156.5 22t113.5 57t73.5 82.5t41.5 95.5t12 98q0 56 -12.5 95.5t-45 73t-95.5 50.5
t-158 17h-248l-105 -591h267z" />
    <glyph glyph-name="germandbls" unicode="&#xdf;" horiz-adv-x="1152" 
d="M83 0l186 1059q45 257 176.5 377t327.5 120q164 0 262.5 -85t98.5 -219q0 -147 -114 -264q-43 -45 -59.5 -63t-36 -56.5t-19.5 -77.5q0 -31 16.5 -61t40 -57.5t47 -58.5t40 -78t16.5 -104q0 -180 -123 -306t-296 -126h-194l21 113h154q126 0 216.5 95t90.5 226
q0 49 -16.5 89t-39.5 68.5t-46.5 55t-40 62t-16.5 77.5q0 38 8 70t26.5 61t32.5 46t44 47t42 44q78 89 78 193q0 89 -62 143t-171 54q-147 0 -243.5 -95.5t-131.5 -287.5l-186 -1061h-129z" />
    <glyph glyph-name="agrave" unicode="&#xe0;" horiz-adv-x="1196" 
d="M765 1147h-100l-178 256l86 57zM980 966h130l-171 -966h-125l30 202q-68 -102 -171.5 -162t-215.5 -60q-166 0 -271 110t-105 292q0 86 24.5 173.5t72 164t111.5 136t148.5 94.5t177.5 35q121 0 208 -64.5t119 -171.5zM487 98q73 0 141 29t118.5 78t88 109.5t57 126
t19.5 126.5q0 131 -76.5 216.5t-199.5 85.5q-74 0 -141.5 -28t-117.5 -76t-87.5 -109t-56.5 -129t-19 -134q0 -134 76 -214.5t198 -80.5z" />
    <glyph glyph-name="aacute" unicode="&#xe1;" horiz-adv-x="1196" 
d="M1025 1403l-270 -256h-99l303 313zM980 966h130l-171 -966h-125l30 202q-68 -102 -171.5 -162t-215.5 -60q-166 0 -271 110t-105 292q0 86 24.5 173.5t72 164t111.5 136t148.5 94.5t177.5 35q121 0 208 -64.5t119 -171.5zM487 98q73 0 141 29t118.5 78t88 109.5t57 126
t19.5 126.5q0 131 -76.5 216.5t-199.5 85.5q-74 0 -141.5 -28t-117.5 -76t-87.5 -109t-56.5 -129t-19 -134q0 -134 76 -214.5t198 -80.5z" />
    <glyph glyph-name="acircumflex" unicode="&#xe2;" horiz-adv-x="1196" 
d="M755 1385l-205 -234h-97l257 294h112l154 -294h-99zM980 966h130l-171 -966h-125l30 202q-68 -102 -171.5 -162t-215.5 -60q-166 0 -271 110t-105 292q0 86 24.5 173.5t72 164t111.5 136t148.5 94.5t177.5 35q121 0 208 -64.5t119 -171.5zM487 98q73 0 141 29t118.5 78
t88 109.5t57 126t19.5 126.5q0 131 -76.5 216.5t-199.5 85.5q-74 0 -141.5 -28t-117.5 -76t-87.5 -109t-56.5 -129t-19 -134q0 -134 76 -214.5t198 -80.5z" />
    <glyph glyph-name="atilde" unicode="&#xe3;" horiz-adv-x="1196" 
d="M620 1288q-43 0 -75 -38t-43 -98h-83q17 96 75.5 157t137.5 61q99 0 140 -96q24 -53 81 -53q44 0 74.5 36t41.5 98h84q-17 -94 -75 -155.5t-137 -61.5q-99 0 -145 95q-25 55 -76 55zM980 966h130l-171 -966h-125l30 202q-68 -102 -171.5 -162t-215.5 -60q-166 0 -271 110
t-105 292q0 86 24.5 173.5t72 164t111.5 136t148.5 94.5t177.5 35q121 0 208 -64.5t119 -171.5zM487 98q73 0 141 29t118.5 78t88 109.5t57 126t19.5 126.5q0 131 -76.5 216.5t-199.5 85.5q-74 0 -141.5 -28t-117.5 -76t-87.5 -109t-56.5 -129t-19 -134q0 -134 76 -214.5
t198 -80.5z" />
    <glyph glyph-name="adieresis" unicode="&#xe4;" horiz-adv-x="1196" 
d="M564 1265q-41 0 -67 30t-21 70q4 42 36.5 71t73.5 29t67.5 -29t22.5 -71q-4 -40 -37.5 -70t-74.5 -30zM919 1265q-41 0 -67.5 30t-21.5 70q4 42 37 71t74 29t67.5 -29t22.5 -71q-5 -41 -38.5 -70.5t-73.5 -29.5zM980 966h130l-171 -966h-125l30 202q-68 -102 -171.5 -162
t-215.5 -60q-166 0 -271 110t-105 292q0 86 24.5 173.5t72 164t111.5 136t148.5 94.5t177.5 35q121 0 208 -64.5t119 -171.5zM487 98q73 0 141 29t118.5 78t88 109.5t57 126t19.5 126.5q0 131 -76.5 216.5t-199.5 85.5q-74 0 -141.5 -28t-117.5 -76t-87.5 -109t-56.5 -129
t-19 -134q0 -134 76 -214.5t198 -80.5z" />
    <glyph glyph-name="aring" unicode="&#xe5;" horiz-adv-x="1196" 
d="M721 1108q-83 0 -136 59.5t-45 141.5q10 83 75 141.5t149 58.5q81 0 133.5 -58.5t43.5 -141.5q-8 -81 -73.5 -141t-146.5 -60zM614 1309q-6 -54 28 -90.5t88 -36.5q53 0 93 36t46 91q6 54 -26.5 92t-85.5 38q-54 0 -95.5 -38t-47.5 -92zM980 966h130l-171 -966h-125
l30 202q-68 -102 -171.5 -162t-215.5 -60q-166 0 -271 110t-105 292q0 86 24.5 173.5t72 164t111.5 136t148.5 94.5t177.5 35q121 0 208 -64.5t119 -171.5zM487 98q73 0 141 29t118.5 78t88 109.5t57 126t19.5 126.5q0 131 -76.5 216.5t-199.5 85.5q-74 0 -141.5 -28
t-117.5 -76t-87.5 -109t-56.5 -129t-19 -134q0 -134 76 -214.5t198 -80.5z" />
    <glyph glyph-name="ae" unicode="&#xe6;" horiz-adv-x="1675" 
d="M1229 987q172 0 272 -95t100 -271q0 -67 -11 -121l-9 -36h-771q-8 -53 -8 -92q0 -133 76 -204t196 -71q96 0 185.5 52.5t148.5 141.5l116 -38q-76 -127 -196.5 -199.5t-255.5 -72.5q-123 0 -215.5 51t-138.5 146h-20q-102 -114 -195 -155.5t-197 -41.5q-118 0 -189 54
t-71 160q0 87 31 150.5t90.5 103t129.5 62t165 37.5l167 25q109 19 109 147q0 81 -51.5 118.5t-137.5 37.5q-98 0 -174.5 -48t-103.5 -142l-118 37q42 130 147.5 196t253.5 66q110 0 188.5 -38.5t107.5 -119.5q155 160 379 160zM1228 879q-132 0 -239 -81t-155 -230h633
q5 30 5 66q0 122 -64.5 183.5t-179.5 61.5zM343 90q181 0 338 216q-5 37 -5 70q0 51 8 107l-229 -38q-275 -42 -275 -229q0 -64 44.5 -95t118.5 -31z" />
    <glyph glyph-name="ccedilla" unicode="&#xe7;" horiz-adv-x="1059" 
d="M479 97q107 0 201.5 58.5t150.5 161.5l122 -32q-71 -139 -194 -218t-266 -84l-80 -125q49 7 60 7q88 0 135 -52.5t33 -138.5q-16 -87 -85.5 -146.5t-156.5 -59.5q-68 0 -129 35.5t-84 87.5l78 34q19 -33 62 -56t86 -23q53 0 96.5 37t53.5 91q10 57 -21.5 89.5t-91.5 32.5
q-44 0 -86 -18l-57 45l108 164q-153 19 -244 125t-91 272q0 112 40 219.5t110.5 192.5t176.5 137t229 52q155 0 258 -82.5t126 -226.5l-125 -18q-19 102 -89 158t-173 56q-94 0 -175 -43.5t-134 -113.5t-83 -156.5t-30 -173.5q0 -133 74 -210.5t195 -77.5z" />
    <glyph glyph-name="egrave" unicode="&#xe8;" horiz-adv-x="1079" 
d="M727 1149h-100l-178 256l86 57zM634 985q172 0 271.5 -94.5t99.5 -270.5q0 -61 -11 -120l-9 -35h-773q-7 -43 -7 -93q0 -135 76.5 -206t197.5 -71q97 0 186.5 52.5t149.5 141.5l113 -37q-76 -127 -195.5 -199t-253.5 -72q-180 0 -288 104.5t-108 288.5q0 93 24 182
t71.5 166.5t113 136t154 92.5t188.5 34zM633 880q-146 0 -248 -88t-148 -226h637q5 30 5 67q0 123 -65.5 185t-180.5 62z" />
    <glyph glyph-name="eacute" unicode="&#xe9;" horiz-adv-x="1079" 
d="M987 1405l-270 -256h-99l303 313zM634 985q172 0 271.5 -94.5t99.5 -270.5q0 -61 -11 -120l-9 -35h-773q-7 -43 -7 -93q0 -135 76.5 -206t197.5 -71q97 0 186.5 52.5t149.5 141.5l113 -37q-76 -127 -195.5 -199t-253.5 -72q-180 0 -288 104.5t-108 288.5q0 93 24 182
t71.5 166.5t113 136t154 92.5t188.5 34zM633 880q-146 0 -248 -88t-148 -226h637q5 30 5 67q0 123 -65.5 185t-180.5 62z" />
    <glyph glyph-name="ecircumflex" unicode="&#xea;" horiz-adv-x="1079" 
d="M717 1387l-205 -234h-97l257 294h112l154 -294h-99zM634 985q172 0 271.5 -94.5t99.5 -270.5q0 -61 -11 -120l-9 -35h-773q-7 -43 -7 -93q0 -135 76.5 -206t197.5 -71q97 0 186.5 52.5t149.5 141.5l113 -37q-76 -127 -195.5 -199t-253.5 -72q-180 0 -288 104.5
t-108 288.5q0 93 24 182t71.5 166.5t113 136t154 92.5t188.5 34zM633 880q-146 0 -248 -88t-148 -226h637q5 30 5 67q0 123 -65.5 185t-180.5 62z" />
    <glyph glyph-name="edieresis" unicode="&#xeb;" horiz-adv-x="1079" 
d="M526 1267q-41 0 -67 30t-21 70q4 42 36.5 71t73.5 29t67.5 -29t22.5 -71q-4 -40 -37.5 -70t-74.5 -30zM881 1267q-41 0 -67.5 30t-21.5 70q4 42 37 71t74 29t67.5 -29t22.5 -71q-5 -41 -38.5 -70.5t-73.5 -29.5zM634 985q172 0 271.5 -94.5t99.5 -270.5q0 -61 -11 -120
l-9 -35h-773q-7 -43 -7 -93q0 -135 76.5 -206t197.5 -71q97 0 186.5 52.5t149.5 141.5l113 -37q-76 -127 -195.5 -199t-253.5 -72q-180 0 -288 104.5t-108 288.5q0 93 24 182t71.5 166.5t113 136t154 92.5t188.5 34zM633 880q-146 0 -248 -88t-148 -226h637q5 30 5 67
q0 123 -65.5 185t-180.5 62z" />
    <glyph glyph-name="igrave" unicode="&#xec;" horiz-adv-x="474" 
d="M306 1147l-178 256l86 57l192 -313h-100zM84 0l171 968h135l-171 -968h-135z" />
    <glyph glyph-name="iacute" unicode="&#xed;" horiz-adv-x="474" 
d="M297 1147l303 313l66 -57l-270 -256h-99zM84 0l171 968h135l-171 -968h-135z" />
    <glyph glyph-name="icircumflex" unicode="&#xee;" horiz-adv-x="474" 
d="M191 1151h-97l257 294h112l154 -294h-99l-122 234zM84 0l171 968h135l-171 -968h-135z" />
    <glyph glyph-name="idieresis" unicode="&#xef;" horiz-adv-x="474" 
d="M205 1265q-41 0 -67 30t-21 70q4 42 36.5 71t73.5 29t67.5 -29t22.5 -71q-4 -40 -37.5 -70t-74.5 -30zM560 1265q-41 0 -67.5 30t-21.5 70q4 42 37 71t74 29t67.5 -29t22.5 -71q-5 -41 -38.5 -70.5t-73.5 -29.5zM84 0l171 968h135l-171 -968h-135z" />
    <glyph glyph-name="eth" unicode="&#xf0;" horiz-adv-x="1128" 
d="M977 825q67 -118 67 -265q0 -88 -25.5 -173t-75 -157.5t-117 -128t-156.5 -87t-188 -31.5q-181 0 -291.5 109.5t-110.5 292.5q0 114 41.5 223.5t111 192.5t169 134t208.5 51q84 0 154 -34l-167 285l-284 -70l-5 63l256 64l-142 242h160l116 -209l297 74l7 -63l-272 -68z
M491 111q100 0 183.5 42t135.5 109.5t80.5 148.5t28.5 163q0 129 -76.5 212t-202.5 83q-98 0 -180.5 -42t-135.5 -110.5t-82.5 -153t-29.5 -171.5q0 -132 76.5 -206.5t202.5 -74.5z" />
    <glyph glyph-name="ntilde" unicode="&#xf1;" horiz-adv-x="1050" 
d="M546 1286q-43 0 -75 -38t-43 -98h-83q17 96 75.5 157t137.5 61q99 0 140 -96q24 -53 81 -53q44 0 74.5 36t41.5 98h84q-17 -94 -75 -155.5t-137 -61.5q-99 0 -145 95q-25 55 -76 55zM663 985q122 0 197.5 -68.5t75.5 -191.5q0 -24 -8 -80l-115 -645h-131l112 628
q6 38 6 67q0 91 -48.5 133.5t-130.5 42.5q-101 0 -183 -64t-112 -179l-111 -628h-131l171 966h131l-23 -131q55 72 132.5 111t167.5 39z" />
    <glyph glyph-name="ograve" unicode="&#xf2;" horiz-adv-x="1121" 
d="M627 1145l-178 256l86 57l192 -313h-100zM481 -19q-178 0 -289 108.5t-111 291.5q0 90 25 178t73.5 164.5t115 135t155.5 92.5t189 34q180 0 290.5 -108.5t110.5 -291.5q0 -113 -40 -221t-111 -193t-177.5 -137.5t-230.5 -52.5zM484 95q93 0 174.5 43t135.5 112.5
t85 155.5t31 173q0 134 -76 213.5t-199 79.5q-94 0 -175.5 -43.5t-134.5 -113.5t-83 -156t-30 -173q0 -134 74.5 -212.5t197.5 -78.5z" />
    <glyph glyph-name="oacute" unicode="&#xf3;" horiz-adv-x="1121" 
d="M618 1145l303 313l66 -57l-270 -256h-99zM481 -19q-178 0 -289 108.5t-111 291.5q0 90 25 178t73.5 164.5t115 135t155.5 92.5t189 34q180 0 290.5 -108.5t110.5 -291.5q0 -113 -40 -221t-111 -193t-177.5 -137.5t-230.5 -52.5zM484 95q93 0 174.5 43t135.5 112.5
t85 155.5t31 173q0 134 -76 213.5t-199 79.5q-94 0 -175.5 -43.5t-134.5 -113.5t-83 -156t-30 -173q0 -134 74.5 -212.5t197.5 -78.5z" />
    <glyph glyph-name="ocircumflex" unicode="&#xf4;" horiz-adv-x="1121" 
d="M512 1149h-97l257 294h112l154 -294h-99l-122 234zM481 -19q-178 0 -289 108.5t-111 291.5q0 90 25 178t73.5 164.5t115 135t155.5 92.5t189 34q180 0 290.5 -108.5t110.5 -291.5q0 -113 -40 -221t-111 -193t-177.5 -137.5t-230.5 -52.5zM484 95q93 0 174.5 43
t135.5 112.5t85 155.5t31 173q0 134 -76 213.5t-199 79.5q-94 0 -175.5 -43.5t-134.5 -113.5t-83 -156t-30 -173q0 -134 74.5 -212.5t197.5 -78.5z" />
    <glyph glyph-name="otilde" unicode="&#xf5;" horiz-adv-x="1121" 
d="M803 1136q-99 0 -145 95q-25 55 -76 55q-43 0 -75 -38t-43 -98h-83q17 96 75.5 157t137.5 61q99 0 140 -96q24 -53 81 -53q44 0 74.5 36t41.5 98h84q-17 -94 -75 -155.5t-137 -61.5zM481 -19q-178 0 -289 108.5t-111 291.5q0 90 25 178t73.5 164.5t115 135t155.5 92.5
t189 34q180 0 290.5 -108.5t110.5 -291.5q0 -113 -40 -221t-111 -193t-177.5 -137.5t-230.5 -52.5zM484 95q93 0 174.5 43t135.5 112.5t85 155.5t31 173q0 134 -76 213.5t-199 79.5q-94 0 -175.5 -43.5t-134.5 -113.5t-83 -156t-30 -173q0 -134 74.5 -212.5t197.5 -78.5z
" />
    <glyph glyph-name="odieresis" unicode="&#xf6;" horiz-adv-x="1121" 
d="M526 1263q-41 0 -67 30t-21 70q4 42 36.5 71t73.5 29t67.5 -29t22.5 -71q-4 -40 -37.5 -70t-74.5 -30zM881 1263q-41 0 -67.5 30t-21.5 70q4 42 37 71t74 29t67.5 -29t22.5 -71q-5 -41 -38.5 -70.5t-73.5 -29.5zM481 -19q-178 0 -289 108.5t-111 291.5q0 90 25 178
t73.5 164.5t115 135t155.5 92.5t189 34q180 0 290.5 -108.5t110.5 -291.5q0 -113 -40 -221t-111 -193t-177.5 -137.5t-230.5 -52.5zM484 95q93 0 174.5 43t135.5 112.5t85 155.5t31 173q0 134 -76 213.5t-199 79.5q-94 0 -175.5 -43.5t-134.5 -113.5t-83 -156t-30 -173
q0 -134 74.5 -212.5t197.5 -78.5z" />
    <glyph glyph-name="divide" unicode="&#xf7;" horiz-adv-x="975" 
d="M517 935q-40 0 -68.5 28.5t-28.5 69.5q0 39 29 69t68 30q40 0 70 -30t30 -69q0 -41 -30 -69.5t-70 -28.5zM158 618v116h724v-116h-724zM517 220q-40 0 -68.5 28.5t-28.5 71.5q0 39 29 68t68 29q40 0 70 -29t30 -68q0 -43 -29.5 -71.5t-70.5 -28.5z" />
    <glyph glyph-name="oslash" unicode="&#xf8;" horiz-adv-x="1121" 
d="M904 900q136 -111 136 -315q0 -113 -40 -221t-111 -193t-177.5 -137.5t-230.5 -52.5q-105 0 -191 40l-100 -143l-75 47l100 144q-134 110 -134 312q0 90 25 178t73.5 164.5t115 135t155.5 92.5t189 34q107 0 189 -39l100 144l76 -47zM212 386q0 -135 76 -214l470 675
q-56 25 -123 25q-94 0 -175.5 -43.5t-134.5 -113.5t-83 -156t-30 -173zM484 95q93 0 174.5 43t135.5 112.5t85 155.5t31 173q0 136 -79 217l-471 -675q55 -26 124 -26z" />
    <glyph glyph-name="ugrave" unicode="&#xf9;" horiz-adv-x="1050" 
d="M695 1145h-100l-178 256l86 57zM834 966h131l-170 -966h-127l21 135q-55 -73 -133 -113.5t-169 -40.5q-123 0 -198 68.5t-75 191.5q0 35 8 80l114 645h131l-110 -623q-7 -36 -7 -69q0 -90 49 -133.5t130 -43.5q111 0 194 72.5t105 200.5h1z" />
    <glyph glyph-name="uacute" unicode="&#xfa;" horiz-adv-x="1050" 
d="M955 1401l-270 -256h-99l303 313zM834 966h131l-170 -966h-127l21 135q-55 -73 -133 -113.5t-169 -40.5q-123 0 -198 68.5t-75 191.5q0 35 8 80l114 645h131l-110 -623q-7 -36 -7 -69q0 -90 49 -133.5t130 -43.5q111 0 194 72.5t105 200.5h1z" />
    <glyph glyph-name="ucircumflex" unicode="&#xfb;" horiz-adv-x="1050" 
d="M685 1383l-205 -234h-97l257 294h112l154 -294h-99zM834 966h131l-170 -966h-127l21 135q-55 -73 -133 -113.5t-169 -40.5q-123 0 -198 68.5t-75 191.5q0 35 8 80l114 645h131l-110 -623q-7 -36 -7 -69q0 -90 49 -133.5t130 -43.5q111 0 194 72.5t105 200.5h1z" />
    <glyph glyph-name="udieresis" unicode="&#xfc;" horiz-adv-x="1050" 
d="M494 1263q-41 0 -67 30t-21 70q4 42 36.5 71t73.5 29t67.5 -29t22.5 -71q-4 -40 -37.5 -70t-74.5 -30zM849 1263q-41 0 -67.5 30t-21.5 70q4 42 37 71t74 29t67.5 -29t22.5 -71q-5 -41 -38.5 -70.5t-73.5 -29.5zM834 966h131l-170 -966h-127l21 135q-55 -73 -133 -113.5
t-169 -40.5q-123 0 -198 68.5t-75 191.5q0 35 8 80l114 645h131l-110 -623q-7 -36 -7 -69q0 -90 49 -133.5t130 -43.5q111 0 194 72.5t105 200.5h1z" />
    <glyph glyph-name="yacute" unicode="&#xfd;" horiz-adv-x="920" 
d="M886 1401l-270 -256h-99l303 313zM834 966h145l-797 -1421h-142l269 480l-198 941h145l148 -797z" />
    <glyph glyph-name="thorn" unicode="&#xfe;" horiz-adv-x="1196" 
d="M748 986q163 0 265 -105.5t102 -283.5q0 -113 -40 -223.5t-110 -198t-174 -141.5t-222 -54q-116 0 -200 62t-115 165l-124 -700h-134l357 2029h134l-136 -774q69 103 175 163.5t222 60.5zM566 100q90 0 169 41.5t131 109t82 151t30 168.5q0 136 -77 216t-199 80
q-118 0 -216 -72t-149 -176.5t-51 -210.5q0 -134 77.5 -220.5t202.5 -86.5z" />
    <glyph glyph-name="ydieresis" unicode="&#xff;" horiz-adv-x="920" 
d="M425 1263q-41 0 -67 30t-21 70q4 42 36.5 71t73.5 29t67.5 -29t22.5 -71q-4 -40 -37.5 -70t-74.5 -30zM780 1263q-41 0 -67.5 30t-21.5 70q4 42 37 71t74 29t67.5 -29t22.5 -71q-5 -41 -38.5 -70.5t-73.5 -29.5zM834 966h145l-797 -1421h-142l269 480l-198 941h145
l148 -797z" />
    <glyph glyph-name="Amacron" unicode="&#x100;" horiz-adv-x="1288" 
d="M1166 1635l-16 -91h-641l16 91h641zM725 1394h159l268 -1394h-142l-64 351h-648l-189 -351h-144zM364 475h559l-141 776z" />
    <glyph glyph-name="amacron" unicode="&#x101;" horiz-adv-x="1196" 
d="M1057 1263l-16 -91h-641l16 91h641zM980 966h130l-171 -966h-125l30 202q-68 -102 -171.5 -162t-215.5 -60q-166 0 -271 110t-105 292q0 86 24.5 173.5t72 164t111.5 136t148.5 94.5t177.5 35q121 0 208 -64.5t119 -171.5zM487 98q73 0 141 29t118.5 78t88 109.5t57 126
t19.5 126.5q0 131 -76.5 216.5t-199.5 85.5q-74 0 -141.5 -28t-117.5 -76t-87.5 -109t-56.5 -129t-19 -134q0 -134 76 -214.5t198 -80.5z" />
    <glyph glyph-name="Abreve" unicode="&#x102;" horiz-adv-x="1288" 
d="M828 1544q-149 0 -227.5 66t-55.5 196h87q-17 -94 41.5 -140t169.5 -46q112 0 186 46t91 140h87q-23 -130 -125.5 -196t-253.5 -66zM725 1394h159l268 -1394h-142l-64 351h-648l-189 -351h-144zM364 475h559l-141 776z" />
    <glyph glyph-name="abreve" unicode="&#x103;" horiz-adv-x="1196" 
d="M712 1139q-143 0 -222 85t-55 221h88q-17 -100 40.5 -165t161.5 -65q106 0 187.5 65.5t97.5 164.5h87q-24 -137 -132 -221.5t-253 -84.5zM980 966h130l-171 -966h-125l30 202q-68 -102 -171.5 -162t-215.5 -60q-166 0 -271 110t-105 292q0 86 24.5 173.5t72 164
t111.5 136t148.5 94.5t177.5 35q121 0 208 -64.5t119 -171.5zM487 98q73 0 141 29t118.5 78t88 109.5t57 126t19.5 126.5q0 131 -76.5 216.5t-199.5 85.5q-74 0 -141.5 -28t-117.5 -76t-87.5 -109t-56.5 -129t-19 -134q0 -134 76 -214.5t198 -80.5z" />
    <glyph glyph-name="Aogonek" unicode="&#x104;" horiz-adv-x="1288" 
d="M944 -231q-5 -22 13 -33.5t60 -11.5q47 0 91 26l-20 -108q-44 -15 -98 -15q-86 0 -123.5 23.5t-30.5 65.5q9 52 74 124t164 160h-64l-64 351h-648l-189 -351h-144l760 1394h159l268 -1394q-8 -7 -39.5 -35t-54 -49t-50 -49.5t-44.5 -53.5t-20 -44zM364 475h559l-141 776z
" />
    <glyph glyph-name="aogonek" unicode="&#x105;" horiz-adv-x="1196" 
d="M939 0q-8 -7 -39.5 -35t-54 -49t-50 -49.5t-44.5 -53.5t-20 -44q-5 -22 13 -33.5t60 -11.5q47 0 91 26l-20 -108q-44 -15 -98 -15q-86 0 -123.5 23.5t-30.5 65.5q9 52 74 124t164 160h-47l30 202q-68 -102 -171.5 -162t-215.5 -60q-166 0 -271 110t-105 292
q0 86 24.5 173.5t72 164t111.5 136t148.5 94.5t177.5 35q121 0 208 -64.5t119 -171.5l38 217h130zM487 98q73 0 141 29t118.5 78t88 109.5t57 126t19.5 126.5q0 131 -76.5 216.5t-199.5 85.5q-74 0 -141.5 -28t-117.5 -76t-87.5 -109t-56.5 -129t-19 -134q0 -134 76 -214.5
t198 -80.5z" />
    <glyph glyph-name="Cacute" unicode="&#x106;" horiz-adv-x="1481" 
d="M932 1544l303 313l66 -57l-269 -256h-100zM725 -19q-262 0 -423 152t-161 416q0 133 36.5 260t108.5 236t169.5 191.5t227.5 129.5t275 47q201 0 346 -93.5t201 -260.5l-130 -48q-45 130 -156.5 199.5t-265.5 69.5q-150 0 -279 -61t-215 -162t-134.5 -231t-48.5 -269
q0 -211 125 -327t329 -116q158 0 299 72.5t233 203.5l116 -62q-113 -166 -285.5 -256.5t-367.5 -90.5z" />
    <glyph glyph-name="cacute" unicode="&#x107;" horiz-adv-x="1059" 
d="M608 1145l303 313l66 -57l-270 -256h-99zM477 -17q-179 0 -288.5 109t-109.5 292q0 112 40 219.5t110.5 192.5t176.5 137t229 52q155 0 258 -82.5t126 -226.5l-125 -18q-19 102 -89 158t-173 56q-94 0 -175 -43.5t-134 -113.5t-83 -156.5t-30 -173.5q0 -133 74 -210.5
t195 -77.5q107 0 201.5 58.5t150.5 161.5l122 -32q-73 -143 -200.5 -222.5t-275.5 -79.5z" />
    <glyph glyph-name="Cdotaccent" unicode="&#x10a;" horiz-adv-x="1481" 
d="M991 1544q-41 0 -65 29.5t-19 70.5q9 42 44 71t76 29t65.5 -29.5t15.5 -70.5q-6 -40 -41 -70t-76 -30zM725 -19q-262 0 -423 152t-161 416q0 133 36.5 260t108.5 236t169.5 191.5t227.5 129.5t275 47q201 0 346 -93.5t201 -260.5l-130 -48q-45 130 -156.5 199.5
t-265.5 69.5q-150 0 -279 -61t-215 -162t-134.5 -231t-48.5 -269q0 -211 125 -327t329 -116q158 0 299 72.5t233 203.5l116 -62q-113 -166 -285.5 -256.5t-367.5 -90.5z" />
    <glyph glyph-name="cdotaccent" unicode="&#x10b;" horiz-adv-x="1059" 
d="M694 1263q-41 0 -67 29.5t-22 70.5q4 42 36.5 71t74.5 29q41 0 68 -29.5t21 -70.5q-5 -41 -38 -70.5t-73 -29.5zM477 -17q-179 0 -288.5 109t-109.5 292q0 112 40 219.5t110.5 192.5t176.5 137t229 52q155 0 258 -82.5t126 -226.5l-125 -18q-19 102 -89 158t-173 56
q-94 0 -175 -43.5t-134 -113.5t-83 -156.5t-30 -173.5q0 -133 74 -210.5t195 -77.5q107 0 201.5 58.5t150.5 161.5l122 -32q-73 -143 -200.5 -222.5t-275.5 -79.5z" />
    <glyph glyph-name="Ccaron" unicode="&#x10c;" horiz-adv-x="1481" 
d="M934 1544l-154 294h98l122 -236l204 236h100l-258 -294h-112zM725 -19q-262 0 -423 152t-161 416q0 133 36.5 260t108.5 236t169.5 191.5t227.5 129.5t275 47q201 0 346 -93.5t201 -260.5l-130 -48q-45 130 -156.5 199.5t-265.5 69.5q-150 0 -279 -61t-215 -162
t-134.5 -231t-48.5 -269q0 -211 125 -327t329 -116q158 0 299 72.5t233 203.5l116 -62q-113 -166 -285.5 -256.5t-367.5 -90.5z" />
    <glyph glyph-name="ccaron" unicode="&#x10d;" horiz-adv-x="1059" 
d="M610 1149l-154 294h98l122 -236l204 236h100l-258 -294h-112zM477 -17q-179 0 -288.5 109t-109.5 292q0 112 40 219.5t110.5 192.5t176.5 137t229 52q155 0 258 -82.5t126 -226.5l-125 -18q-19 102 -89 158t-173 56q-94 0 -175 -43.5t-134 -113.5t-83 -156.5t-30 -173.5
q0 -133 74 -210.5t195 -77.5q107 0 201.5 58.5t150.5 161.5l122 -32q-73 -143 -200.5 -222.5t-275.5 -79.5z" />
    <glyph glyph-name="Dcaron" unicode="&#x10e;" horiz-adv-x="1397" 
d="M702 1544l-154 294h98l122 -236l204 236h100l-258 -294h-112zM128 0l245 1394h424q260 0 397 -143.5t137 -386.5q0 -119 -27 -237t-87.5 -232t-148 -201t-218.5 -140.5t-289 -53.5h-433zM285 126h286q130 0 237 46t176.5 121t117.5 173t69 197.5t21 199.5
q0 191 -102.5 298.5t-306.5 107.5h-296z" />
    <glyph glyph-name="dcaron" unicode="&#x10f;" horiz-adv-x="1304" 
d="M943 753l138 783h133l-271 -1536h-131l31 199q-67 -101 -170 -160t-214 -59q-167 0 -272 110t-105 292q0 109 39.5 217t108 194t170.5 139.5t217 53.5q121 0 207.5 -63.5t118.5 -169.5zM1399 1536h143l-165 -609h-102zM487 100q92 0 173.5 45t135.5 114.5t85 152
t31 159.5q0 130 -76 213.5t-196 83.5q-122 0 -221.5 -74t-151 -182t-51.5 -221q0 -132 75.5 -211.5t195.5 -79.5z" />
    <glyph glyph-name="Dcroat" unicode="&#x110;" horiz-adv-x="1397" 
d="M797 1394q260 0 397 -143.5t137 -386.5q0 -119 -27 -237t-87.5 -232t-148 -201t-218.5 -140.5t-289 -53.5h-433l114 651h-167l17 94h167l114 649h424zM571 126q130 0 237 46t176.5 121t117.5 173t69 197.5t21 199.5q0 191 -102.5 298.5t-306.5 107.5h-296l-93 -524h277
l-17 -94h-276l-93 -525h286z" />
    <glyph glyph-name="dcroat" unicode="&#x111;" horiz-adv-x="1194" 
d="M1336 1283l-17 -94h-170l-210 -1189h-128l32 201q-68 -102 -171.5 -161.5t-214.5 -59.5q-166 0 -271 110t-105 292q0 86 24.5 173.5t72 164t111.5 136t148.5 94.5t177.5 35q122 0 209 -64.5t118 -171.5l77 440h-279l17 94h279l44 253h130l-45 -253h171zM489 98
q91 0 172 44.5t134 114t84 151t31 158.5q0 133 -76.5 218t-198.5 85t-221 -73.5t-150 -181t-51 -220.5q0 -135 76.5 -215.5t199.5 -80.5z" />
    <glyph glyph-name="Emacron" unicode="&#x112;" horiz-adv-x="1040" 
d="M1100 1635l-16 -91h-641l16 91h641zM128 0l245 1394h726l-22 -125h-585l-90 -511h513l-22 -124h-513l-90 -508h585l-22 -126h-725z" />
    <glyph glyph-name="emacron" unicode="&#x113;" horiz-adv-x="1079" 
d="M1019 1265l-16 -91h-641l16 91h641zM634 985q172 0 271.5 -94.5t99.5 -270.5q0 -61 -11 -120l-9 -35h-773q-7 -43 -7 -93q0 -135 76.5 -206t197.5 -71q97 0 186.5 52.5t149.5 141.5l113 -37q-76 -127 -195.5 -199t-253.5 -72q-180 0 -288 104.5t-108 288.5q0 93 24 182
t71.5 166.5t113 136t154 92.5t188.5 34zM633 880q-146 0 -248 -88t-148 -226h637q5 30 5 67q0 123 -65.5 185t-180.5 62z" />
    <glyph glyph-name="Edotaccent" unicode="&#x116;" horiz-adv-x="1040" 
d="M764 1544q-41 0 -65 29.5t-19 70.5q9 42 44 71t76 29t65.5 -29.5t15.5 -70.5q-6 -40 -41 -70t-76 -30zM1077 1269h-585l-90 -511h513l-22 -124h-513l-90 -508h585l-22 -126h-725l245 1394h726z" />
    <glyph glyph-name="edotaccent" unicode="&#x117;" horiz-adv-x="1079" 
d="M704 1267q-41 0 -67 29.5t-22 70.5q4 42 36.5 71t74.5 29q41 0 68 -29.5t21 -70.5q-5 -41 -38 -70.5t-73 -29.5zM634 985q172 0 271.5 -94.5t99.5 -270.5q0 -61 -11 -120l-9 -35h-773q-7 -43 -7 -93q0 -135 76.5 -206t197.5 -71q97 0 186.5 52.5t149.5 141.5l113 -37
q-76 -127 -195.5 -199t-253.5 -72q-180 0 -288 104.5t-108 288.5q0 93 24 182t71.5 166.5t113 136t154 92.5t188.5 34zM633 880q-146 0 -248 -88t-148 -226h637q5 30 5 67q0 123 -65.5 185t-180.5 62z" />
    <glyph glyph-name="Eogonek" unicode="&#x118;" horiz-adv-x="1040" 
d="M1077 1269h-585l-90 -511h513l-22 -124h-513l-90 -508h585l-22 -126q-8 -7 -39.5 -35t-54 -49t-50 -49.5t-44.5 -53.5t-20 -44q-5 -22 13 -33.5t60 -11.5q47 0 91 26l-20 -108q-43 -15 -98 -15q-86 0 -123.5 23.5t-30.5 65.5q9 52 74 124t164 160h-647l245 1394h726z" />
    <glyph glyph-name="eogonek" unicode="&#x119;" horiz-adv-x="1079" 
d="M634 985q172 0 271.5 -94.5t99.5 -270.5q0 -61 -11 -120l-9 -35h-773q-7 -43 -7 -93q0 -135 76.5 -206t197.5 -71q97 0 186.5 52.5t149.5 141.5l113 -37q-66 -110 -160 -175q-138 -125 -148 -178q-5 -22 13 -33.5t60 -11.5q47 0 91 26l-20 -108q-43 -15 -98 -15
q-86 0 -123.5 23.5t-30.5 65.5q9 55 102 155q-68 -20 -135 -20q-180 0 -288 104.5t-108 288.5q0 93 24 182t71.5 166.5t113 136t154 92.5t188.5 34zM633 880q-146 0 -248 -88t-148 -226h637q5 30 5 67q0 123 -65.5 185t-180.5 62z" />
    <glyph glyph-name="Ecaron" unicode="&#x11a;" horiz-adv-x="1040" 
d="M819 1544h-112l-154 294h98l122 -236l204 236h100zM1077 1269h-585l-90 -511h513l-22 -124h-513l-90 -508h585l-22 -126h-725l245 1394h726z" />
    <glyph glyph-name="ecaron" unicode="&#x11b;" horiz-adv-x="1079" 
d="M732 1153h-112l-154 294h98l122 -236l204 236h100zM634 985q172 0 271.5 -94.5t99.5 -270.5q0 -61 -11 -120l-9 -35h-773q-7 -43 -7 -93q0 -135 76.5 -206t197.5 -71q97 0 186.5 52.5t149.5 141.5l113 -37q-76 -127 -195.5 -199t-253.5 -72q-180 0 -288 104.5t-108 288.5
q0 93 24 182t71.5 166.5t113 136t154 92.5t188.5 34zM633 880q-146 0 -248 -88t-148 -226h637q5 30 5 67q0 123 -65.5 185t-180.5 62z" />
    <glyph glyph-name="Gbreve" unicode="&#x11e;" horiz-adv-x="1585" 
d="M977 1544q-149 0 -227.5 66t-55.5 196h87q-17 -94 41.5 -140t169.5 -46q112 0 186 46t91 140h87q-23 -130 -125.5 -196t-253.5 -66zM721 -19q-261 0 -421.5 149t-160.5 412q0 168 58 324.5t161.5 278.5t259 195t338.5 73q192 0 333 -84t202 -243l-126 -58
q-48 128 -156.5 191.5t-257.5 63.5q-152 0 -281 -62t-214.5 -165.5t-133 -235.5t-47.5 -273q0 -210 124 -324t332 -114q215 0 374 123t219 346l-504 -3l21 119h640l-123 -694h-115l53 285q-97 -147 -245 -225.5t-330 -78.5z" />
    <glyph glyph-name="gbreve" unicode="&#x11f;" horiz-adv-x="1183" 
d="M659 1137q-143 0 -222 85t-55 221h88q-17 -100 40.5 -165t161.5 -65q106 0 187.5 65.5t97.5 164.5h87q-24 -137 -132 -221.5t-253 -84.5zM968 966h129l-163 -930q-41 -235 -182 -365.5t-352 -130.5q-341 0 -414 298l116 51q43 -235 296 -235q162 0 268 104t136 282
l33 195q-63 -95 -167.5 -152.5t-216.5 -57.5q-163 0 -268 110.5t-105 284.5q0 146 72.5 277t194 209.5t258.5 78.5q120 0 209 -63t119 -164zM482 141q106 0 203 63t155.5 165t58.5 211q0 124 -76.5 207.5t-198.5 83.5q-109 0 -205.5 -63t-153.5 -165t-57 -213
q0 -127 77 -208t197 -81z" />
    <glyph glyph-name="Gdotaccent" unicode="&#x120;" horiz-adv-x="1585" 
d="M979 1544q-41 0 -65 29.5t-19 70.5q9 42 44 71t76 29t65.5 -29.5t15.5 -70.5q-6 -40 -41 -70t-76 -30zM721 -19q-261 0 -421.5 149t-160.5 412q0 168 58 324.5t161.5 278.5t259 195t338.5 73q192 0 333 -84t202 -243l-126 -58q-48 128 -156.5 191.5t-257.5 63.5
q-152 0 -281 -62t-214.5 -165.5t-133 -235.5t-47.5 -273q0 -210 124 -324t332 -114q215 0 374 123t219 346l-504 -3l21 119h640l-123 -694h-115l53 285q-97 -147 -245 -225.5t-330 -78.5z" />
    <glyph glyph-name="gdotaccent" unicode="&#x121;" horiz-adv-x="1183" 
d="M689 1263q-41 0 -67 29.5t-22 70.5q4 42 36.5 71t74.5 29q41 0 68 -29.5t21 -70.5q-5 -41 -38 -70.5t-73 -29.5zM968 966h129l-163 -930q-41 -235 -182 -365.5t-352 -130.5q-341 0 -414 298l116 51q43 -235 296 -235q162 0 268 104t136 282l33 195q-63 -95 -167.5 -152.5
t-216.5 -57.5q-163 0 -268 110.5t-105 284.5q0 146 72.5 277t194 209.5t258.5 78.5q120 0 209 -63t119 -164zM482 141q106 0 203 63t155.5 165t58.5 211q0 124 -76.5 207.5t-198.5 83.5q-109 0 -205.5 -63t-153.5 -165t-57 -213q0 -127 77 -208t197 -81z" />
    <glyph glyph-name="Gcommaaccent" unicode="&#x122;" horiz-adv-x="1585" 
d="M721 -19q-261 0 -421.5 149t-160.5 412q0 168 58 324.5t161.5 278.5t259 195t338.5 73q192 0 333 -84t202 -243l-126 -58q-48 128 -156.5 191.5t-257.5 63.5q-152 0 -281 -62t-214.5 -165.5t-133 -235.5t-47.5 -273q0 -210 124 -324t332 -114q215 0 374 123t219 346
l-504 -3l21 119h640l-123 -694h-115l53 285q-97 -147 -245 -225.5t-330 -78.5zM461 -554l-70 33l222 363h128z" />
    <glyph glyph-name="gcommaaccent" unicode="&#x123;" horiz-adv-x="1183" 
d="M1016 1434l-281 -299h-145l324 299h102zM968 966h129l-163 -930q-41 -235 -182 -365.5t-352 -130.5q-341 0 -414 298l116 51q43 -235 296 -235q162 0 268 104t136 282l33 195q-63 -95 -167.5 -152.5t-216.5 -57.5q-163 0 -268 110.5t-105 284.5q0 146 72.5 277t194 209.5
t258.5 78.5q120 0 209 -63t119 -164zM482 141q106 0 203 63t155.5 165t58.5 211q0 124 -76.5 207.5t-198.5 83.5q-109 0 -205.5 -63t-153.5 -165t-57 -213q0 -127 77 -208t197 -81z" />
    <glyph glyph-name="Hbar" unicode="&#x126;" horiz-adv-x="1447" 
d="M1493 1127l-12 -83h-148l-184 -1044h-135l112 636h-749l-113 -636h-136l183 1044h-146l12 83h149l47 267h138l-47 -267h749l47 267h135l-47 -267h145zM1148 760l50 284h-749l-50 -284h749z" />
    <glyph glyph-name="hbar" unicode="&#x127;" horiz-adv-x="1048" 
d="M661 985q122 0 197.5 -68.5t75.5 -191.5q0 -24 -8 -80l-114 -645h-131l111 628q6 38 6 68q0 90 -48.5 132.5t-128.5 42.5q-99 0 -180 -60t-114 -170l-113 -641h-131l209 1191h-142l17 94h142l44 251h131l-44 -251h306l-17 -94h-306l-62 -356q55 72 132.5 111t167.5 39z
" />
    <glyph glyph-name="Itilde" unicode="&#x128;" horiz-adv-x="561" 
d="M614 1530q-114 0 -162 108q-30 70 -99 70q-53 0 -94 -45.5t-54 -116.5h-79q19 105 85 173t154 68q110 0 160 -109q29 -68 101 -68q54 0 94 43.5t52 115.5h79q-18 -105 -83 -172t-154 -67zM128 0l245 1394h135l-245 -1394h-135z" />
    <glyph glyph-name="itilde" unicode="&#x129;" horiz-adv-x="474" 
d="M482 1138q-99 0 -145 95q-25 55 -76 55q-43 0 -75 -38t-43 -98h-83q17 96 75.5 157t137.5 61q99 0 140 -96q24 -53 81 -53q44 0 74.5 36t41.5 98h84q-17 -94 -75 -155.5t-137 -61.5zM84 0l171 968h135l-171 -968h-135z" />
    <glyph glyph-name="Imacron" unicode="&#x12a;" horiz-adv-x="561" 
d="M146 1544l16 91h641l-16 -91h-641zM128 0l245 1394h135l-245 -1394h-135z" />
    <glyph glyph-name="imacron" unicode="&#x12b;" horiz-adv-x="474" 
d="M41 1172l16 91h641l-16 -91h-641zM84 0l171 968h135l-171 -968h-135z" />
    <glyph glyph-name="Iogonek" unicode="&#x12e;" horiz-adv-x="561" 
d="M264 0q-8 -7 -39.5 -35t-54 -49t-50 -49.5t-44.5 -53.5t-20 -44q-5 -22 13 -33.5t60 -11.5q47 0 91 26l-20 -108q-44 -15 -98 -15q-86 0 -123.5 23.5t-30.5 65.5q9 52 74 124t164 160h-58l245 1394h135l-245 -1394h1z" />
    <glyph glyph-name="iogonek" unicode="&#x12f;" horiz-adv-x="474" 
d="M405 1465q41 0 68 -29.5t21 -70.5q-5 -41 -38 -70.5t-73 -29.5q-41 0 -67 29.5t-22 70.5q4 42 36.5 71t74.5 29zM84 0l171 968h135l-171 -968q-8 -7 -39.5 -35t-54 -49t-50 -49.5t-44.5 -53.5t-20 -44q-5 -22 13 -33.5t60 -11.5q47 0 91 26l-20 -108q-44 -15 -98 -15
q-86 0 -123.5 23.5t-30.5 65.5q9 52 74 124t164 160h-57z" />
    <glyph glyph-name="Idotaccent" unicode="&#x130;" horiz-adv-x="561" 
d="M467 1544q-41 0 -65 29.5t-19 70.5q9 42 44 71t76 29t65.5 -29.5t15.5 -70.5q-6 -40 -41 -70t-76 -30zM128 0l245 1394h135l-245 -1394h-135z" />
    <glyph glyph-name="dotlessi" unicode="&#x131;" horiz-adv-x="474" 
d="M84 0l171 968h135l-171 -968h-135z" />
    <glyph glyph-name="Kcommaaccent" unicode="&#x136;" horiz-adv-x="1222" 
d="M624 729v-4l463 -725h-165l-414 667h-128l-117 -667h-135l245 1394h135l-106 -602h131l604 602h173zM190 -521l222 363h128l-280 -396z" />
    <glyph glyph-name="kcommaaccent" unicode="&#x137;" horiz-adv-x="955" 
d="M978 966l-480 -443l362 -523h-161l-321 474h-80l-84 -474h-131l270 1536h132l-168 -955h90l404 385h167zM77 -521l222 363h128l-280 -396z" />
    <glyph glyph-name="Lacute" unicode="&#x139;" horiz-adv-x="892" 
d="M777 1800l-269 -256h-100l303 313zM287 126h499l-22 -126h-636l245 1394h135z" />
    <glyph glyph-name="lacute" unicode="&#x13a;" horiz-adv-x="469" 
d="M393 1715l303 313l66 -57l-270 -256h-99zM83 0l270 1536h132l-271 -1536h-131z" />
    <glyph glyph-name="Lcommaaccent" unicode="&#x13b;" horiz-adv-x="892" 
d="M287 126h499l-22 -126h-636l245 1394h135zM130 -521l222 363h128l-280 -396z" />
    <glyph glyph-name="lcommaaccent" unicode="&#x13c;" horiz-adv-x="469" 
d="M83 0l270 1536h132l-271 -1536h-131zM-97 -554l-70 33l222 363h128z" />
    <glyph glyph-name="Lcaron" unicode="&#x13d;" horiz-adv-x="937" 
d="M959 1395l-271 -609h-102l228 609h145zM508 1394l-221 -1268h499l-22 -126h-636l245 1394h135z" />
    <glyph glyph-name="lcaron" unicode="&#x13e;" horiz-adv-x="564" 
d="M83 0l270 1536h135l-270 -1536h-135zM538 927l123 609h143l-164 -609h-102z" />
    <glyph glyph-name="Lslash" unicode="&#x141;" horiz-adv-x="892" 
d="M287 126h499l-22 -126h-636l101 574l-185 -123l20 110l184 122l125 711h135l-106 -609l238 158l-20 -110l-237 -157z" />
    <glyph glyph-name="lslash" unicode="&#x142;" horiz-adv-x="469" 
d="M568 943l-20 -110l-212 -140l-122 -693h-131l104 594l-215 -143l20 110l215 142l146 833h132l-129 -734z" />
    <glyph glyph-name="Nacute" unicode="&#x143;" horiz-adv-x="1491" 
d="M1242 1800l-269 -256h-100l303 313zM1305 1394h134l-246 -1394h-130l-596 1176l-208 -1176h-131l245 1394h128l597 -1174z" />
    <glyph glyph-name="nacute" unicode="&#x144;" horiz-adv-x="1050" 
d="M951 1401l-270 -256h-99l303 313zM663 985q122 0 197.5 -68.5t75.5 -191.5q0 -24 -8 -80l-115 -645h-131l112 628q6 38 6 67q0 91 -48.5 133.5t-130.5 42.5q-101 0 -183 -64t-112 -179l-111 -628h-131l171 966h131l-23 -131q55 72 132.5 111t167.5 39z" />
    <glyph glyph-name="Ncommaaccent" unicode="&#x145;" horiz-adv-x="1491" 
d="M1305 1394h134l-246 -1394h-130l-596 1176l-208 -1176h-131l245 1394h128l597 -1174zM346 -521l222 363h128l-280 -396z" />
    <glyph glyph-name="ncommaaccent" unicode="&#x146;" horiz-adv-x="1050" 
d="M663 985q122 0 197.5 -68.5t75.5 -191.5q0 -24 -8 -80l-115 -645h-131l112 628q6 38 6 67q0 91 -48.5 133.5t-130.5 42.5q-101 0 -183 -64t-112 -179l-111 -628h-131l171 966h131l-23 -131q55 72 132.5 111t167.5 39zM124 -521l222 363h128l-280 -396z" />
    <glyph glyph-name="Ncaron" unicode="&#x147;" horiz-adv-x="1491" 
d="M987 1544h-112l-154 294h98l122 -236l204 236h100zM1305 1394h134l-246 -1394h-130l-596 1176l-208 -1176h-131l245 1394h128l597 -1174z" />
    <glyph glyph-name="ncaron" unicode="&#x148;" horiz-adv-x="1050" 
d="M696 1149h-112l-154 294h98l122 -236l204 236h100zM663 985q122 0 197.5 -68.5t75.5 -191.5q0 -24 -8 -80l-115 -645h-131l112 628q6 38 6 67q0 91 -48.5 133.5t-130.5 42.5q-101 0 -183 -64t-112 -179l-111 -628h-131l171 966h131l-23 -131q55 72 132.5 111t167.5 39z
" />
    <glyph glyph-name="Eng" unicode="&#x14a;" horiz-adv-x="1536" 
d="M1349 1395h135l-246 -1395q-39 -220 -186.5 -339t-362.5 -119l19 114q101 0 183.5 37t140 115.5t73.5 191.5l-634 1192l-210 -1192h-133l246 1395h130l636 -1185z" />
    <glyph glyph-name="eng" unicode="&#x14b;" horiz-adv-x="1056" 
d="M661 986q149 0 225 -92t46 -260l-145 -825q-22 -120 -100.5 -192.5t-189.5 -72.5h-122l19 105h86q60 0 110 46.5t62 117.5l144 810q22 127 -28 186t-151 59q-106 0 -187 -67t-103 -191h-1l-107 -610h-135l171 968h134l-20 -116q117 134 292 134z" />
    <glyph glyph-name="Omacron" unicode="&#x14c;" horiz-adv-x="1604" 
d="M669 1544l16 91h641l-16 -91h-641zM725 -19q-262 0 -423 152t-161 416q0 133 36.5 260t108.5 236t169.5 191.5t227.5 129.5t275 47q259 0 420.5 -152t161.5 -414q0 -111 -26.5 -218.5t-75 -203.5t-121 -177.5t-161.5 -140.5t-199.5 -92.5t-231.5 -33.5zM730 112
q120 0 227.5 40t188 110t139.5 161.5t89 198t30 217.5q0 209 -124.5 325t-326.5 116q-151 0 -280 -61.5t-215 -163t-134 -232t-48 -268.5q0 -211 125 -327t329 -116z" />
    <glyph glyph-name="omacron" unicode="&#x14d;" horiz-adv-x="1121" 
d="M362 1170l16 91h641l-16 -91h-641zM481 -19q-178 0 -289 108.5t-111 291.5q0 90 25 178t73.5 164.5t115 135t155.5 92.5t189 34q180 0 290.5 -108.5t110.5 -291.5q0 -113 -40 -221t-111 -193t-177.5 -137.5t-230.5 -52.5zM484 95q93 0 174.5 43t135.5 112.5t85 155.5
t31 173q0 134 -76 213.5t-199 79.5q-94 0 -175.5 -43.5t-134.5 -113.5t-83 -156t-30 -173q0 -134 74.5 -212.5t197.5 -78.5z" />
    <glyph glyph-name="Ohungarumlaut" unicode="&#x150;" horiz-adv-x="1604" 
d="M762 1544l303 313l66 -57l-269 -256h-100zM1116 1544l303 313l66 -57l-269 -256h-100zM725 -19q-262 0 -423 152t-161 416q0 133 36.5 260t108.5 236t169.5 191.5t227.5 129.5t275 47q259 0 420.5 -152t161.5 -414q0 -111 -26.5 -218.5t-75 -203.5t-121 -177.5
t-161.5 -140.5t-199.5 -92.5t-231.5 -33.5zM730 112q120 0 227.5 40t188 110t139.5 161.5t89 198t30 217.5q0 209 -124.5 325t-326.5 116q-151 0 -280 -61.5t-215 -163t-134 -232t-48 -268.5q0 -211 125 -327t329 -116z" />
    <glyph glyph-name="ohungarumlaut" unicode="&#x151;" horiz-adv-x="1121" 
d="M449 1145l303 313l66 -57l-270 -256h-99zM803 1145l303 313l66 -57l-270 -256h-99zM481 -19q-178 0 -289 108.5t-111 291.5q0 90 25 178t73.5 164.5t115 135t155.5 92.5t189 34q180 0 290.5 -108.5t110.5 -291.5q0 -113 -40 -221t-111 -193t-177.5 -137.5t-230.5 -52.5z
M484 95q93 0 174.5 43t135.5 112.5t85 155.5t31 173q0 134 -76 213.5t-199 79.5q-94 0 -175.5 -43.5t-134.5 -113.5t-83 -156t-30 -173q0 -134 74.5 -212.5t197.5 -78.5z" />
    <glyph glyph-name="OE" unicode="&#x152;" horiz-adv-x="1908" 
d="M741 0q-301 0 -451.5 135t-150.5 384q0 133 28.5 256t94 237t161.5 198t241 134t323 50h980l-22 -129h-624l-90 -505h538l-23 -128h-537l-89 -504h624l-23 -128h-980zM768 128h215l201 1137h-215q-152 0 -272 -42.5t-197 -112.5t-127.5 -166t-71.5 -197t-21 -212
q0 -407 488 -407z" />
    <glyph glyph-name="oe" unicode="&#x153;" horiz-adv-x="1894" 
d="M1449 985q172 0 271.5 -94.5t99.5 -270.5q0 -61 -11 -120l-9 -35h-772l-3 -18q-5 -42 -5 -75q0 -135 76.5 -206t197.5 -71q97 0 186.5 52.5t149.5 141.5l113 -37q-76 -127 -195.5 -199t-253.5 -72q-136 0 -233.5 61.5t-137.5 173.5q-76 -108 -189.5 -171.5t-252.5 -63.5
q-178 0 -289 108.5t-111 291.5q0 90 25 178t73.5 164.5t115 135t155.5 92.5t189 34q134 0 231.5 -62t140.5 -173q74 109 186 172t252 63zM1448 880q-146 0 -248 -88t-148 -226h637q5 30 5 67q0 123 -65.5 185t-180.5 62zM484 95q93 0 174.5 43t135.5 112.5t85 155.5t31 173
q0 134 -76 213.5t-199 79.5q-94 0 -175.5 -43.5t-134.5 -113.5t-83 -156t-30 -173q0 -134 74.5 -212.5t197.5 -78.5z" />
    <glyph glyph-name="Racute" unicode="&#x154;" horiz-adv-x="1209" 
d="M1104 1800l-269 -256h-100l303 313zM1166 1081q0 -50 -11.5 -102.5t-40 -109t-71 -103t-111 -81t-152.5 -45.5l263 -640h-148l-248 635h-271l-112 -635h-136l245 1394h441q174 0 263 -86.5t89 -226.5zM487 1271l-92 -526h290q81 0 145.5 24t102 59.5t62 81t33 84.5
t8.5 74q0 95 -62 149t-187 54h-300z" />
    <glyph glyph-name="racute" unicode="&#x155;" horiz-adv-x="611" 
d="M747 1401l-270 -256h-99l303 313zM355 794q51 84 139 132.5t189 50.5l-26 -135q-134 0 -228.5 -79.5t-121.5 -237.5l-93 -525h-130l171 966h129z" />
    <glyph glyph-name="Rcommaaccent" unicode="&#x156;" horiz-adv-x="1209" 
d="M1166 1081q0 -50 -11.5 -102.5t-40 -109t-71 -103t-111 -81t-152.5 -45.5l263 -640h-148l-248 635h-271l-112 -635h-136l245 1394h441q174 0 263 -86.5t89 -226.5zM487 1271l-92 -526h290q81 0 145.5 24t102 59.5t62 81t33 84.5t8.5 74q0 95 -62 149t-187 54h-300z
M208 -521l222 363h128l-280 -396z" />
    <glyph glyph-name="rcommaaccent" unicode="&#x157;" horiz-adv-x="611" 
d="M355 794q51 84 139 132.5t189 50.5l-26 -135q-134 0 -228.5 -79.5t-121.5 -237.5l-93 -525h-130l171 966h129zM-163 -521l222 363h128l-280 -396z" />
    <glyph glyph-name="Rcaron" unicode="&#x158;" horiz-adv-x="1209" 
d="M849 1544h-112l-154 294h98l122 -236l204 236h100zM1166 1081q0 -50 -11.5 -102.5t-40 -109t-71 -103t-111 -81t-152.5 -45.5l263 -640h-148l-248 635h-271l-112 -635h-136l245 1394h441q174 0 263 -86.5t89 -226.5zM487 1271l-92 -526h290q81 0 145.5 24t102 59.5t62 81
t33 84.5t8.5 74q0 95 -62 149t-187 54h-300z" />
    <glyph glyph-name="rcaron" unicode="&#x159;" horiz-adv-x="611" 
d="M492 1149h-112l-154 294h98l122 -236l204 236h100zM355 794q51 84 139 132.5t189 50.5l-26 -135q-134 0 -228.5 -79.5t-121.5 -237.5l-93 -525h-130l171 966h129z" />
    <glyph glyph-name="Sacute" unicode="&#x15a;" horiz-adv-x="1226" 
d="M739 1544l303 313l66 -57l-269 -256h-100zM575 -19q-219 0 -355.5 97.5t-146.5 262.5l139 26q9 -121 111.5 -192.5t258.5 -71.5q169 0 276 72.5t107 200.5q0 139 -129 209q-61 32 -214 73l-1 1h-1h-1h-1l-1 1h-2q-51 14 -83.5 23.5t-77.5 26.5t-73 34t-60 44t-49.5 58
t-29.5 73.5t-12 93.5q0 172 141.5 286t351.5 114q198 0 330.5 -86t140.5 -245l-134 -28q-6 79 -55.5 134t-121.5 79t-159 24q-152 0 -255.5 -77.5t-103.5 -187.5q0 -36 9 -66.5t22 -52.5t38.5 -41.5t46 -31.5t58.5 -25t62 -20t69 -19q174 -45 248 -83q166 -84 182 -254
q2 -20 2 -40q0 -129 -69 -223.5t-187.5 -141.5t-270.5 -47z" />
    <glyph glyph-name="sacute" unicode="&#x15b;" horiz-adv-x="892" 
d="M508 1145l303 313l66 -57l-270 -256h-99zM378 -19q-155 0 -244.5 72.5t-87.5 199.5l124 27q-4 -90 52.5 -142.5t157.5 -52.5q108 0 180 55t72 149q0 28 -11.5 50.5t-27.5 37t-49 28.5t-59.5 22t-74.5 21q-46 12 -78 22.5t-68.5 29.5t-59 41t-37.5 56t-15 77
q0 143 103.5 226t261.5 83q139 0 224 -65t84 -189l-119 -24q5 87 -49 131.5t-138 44.5q-100 0 -170 -53.5t-70 -142.5q0 -27 12 -48.5t27 -34.5t46 -25.5t52 -18.5t63 -17q50 -12 83.5 -22.5t74.5 -30t65 -43t41 -60.5t17 -83q0 -150 -107.5 -235.5t-274.5 -85.5z" />
    <glyph glyph-name="Scedilla" unicode="&#x15e;" horiz-adv-x="1226" 
d="M670 770q174 -45 248 -83q166 -84 182 -254q2 -20 2 -40q0 -129 -69 -223.5t-187.5 -141.5t-270.5 -47h-22l-79 -123q49 7 60 7q88 0 135 -52.5t33 -138.5q-16 -87 -85.5 -146.5t-156.5 -59.5q-68 0 -129 35.5t-84 87.5l78 34q19 -33 62 -56t86 -23q53 0 96.5 37t53.5 91
q10 57 -21.5 89.5t-91.5 32.5q-44 0 -86 -18l-57 45l108 164q-178 21 -286 115.5t-116 238.5l139 26q9 -121 111.5 -192.5t258.5 -71.5q169 0 276 72.5t107 200.5q0 139 -129 209q-61 32 -214 73l-1 1h-1h-1h-1l-1 1h-2q-51 14 -83.5 23.5t-77.5 26.5t-73 34t-60 44
t-49.5 58t-29.5 73.5t-12 93.5q0 172 141.5 286t351.5 114q198 0 330.5 -86t140.5 -245l-134 -28q-6 79 -55.5 134t-121.5 79t-159 24q-152 0 -255.5 -77.5t-103.5 -187.5q0 -36 9 -66.5t22 -52.5t38.5 -41.5t46 -31.5t58.5 -25t62 -20t69 -19z" />
    <glyph glyph-name="scedilla" unicode="&#x15f;" horiz-adv-x="892" 
d="M825 729l-119 -24q5 87 -49 131.5t-138 44.5q-100 0 -170 -53.5t-70 -142.5q0 -27 12 -48.5t27 -34.5t46 -25.5t52 -18.5t63 -17q50 -12 83.5 -22.5t74.5 -30t65 -43t41 -60.5t17 -83q0 -147 -103.5 -232t-265.5 -89l-79 -123q49 7 60 7q88 0 135 -52.5t33 -138.5
q-16 -87 -85.5 -146.5t-156.5 -59.5q-68 0 -129 35.5t-84 87.5l78 34q19 -33 62 -56t86 -23q53 0 96.5 37t53.5 91q10 57 -21.5 89.5t-91.5 32.5q-44 0 -86 -18l-57 45l107 162q-126 15 -197 85.5t-69 182.5l124 27q-4 -90 52.5 -142.5t157.5 -52.5q108 0 180 55t72 149
q0 28 -11.5 50.5t-27.5 37t-49 28.5t-59.5 22t-74.5 21q-46 12 -78 22.5t-68.5 29.5t-59 41t-37.5 56t-15 77q0 143 103.5 226t261.5 83q139 0 224 -65t84 -189z" />
    <glyph glyph-name="Scaron" unicode="&#x160;" horiz-adv-x="1226" 
d="M741 1544l-154 294h98l122 -236l204 236h100l-258 -294h-112zM575 -19q-219 0 -355.5 97.5t-146.5 262.5l139 26q9 -121 111.5 -192.5t258.5 -71.5q169 0 276 72.5t107 200.5q0 139 -129 209q-61 32 -214 73l-1 1h-1h-1h-1l-1 1h-2q-51 14 -83.5 23.5t-77.5 26.5t-73 34
t-60 44t-49.5 58t-29.5 73.5t-12 93.5q0 172 141.5 286t351.5 114q198 0 330.5 -86t140.5 -245l-134 -28q-6 79 -55.5 134t-121.5 79t-159 24q-152 0 -255.5 -77.5t-103.5 -187.5q0 -36 9 -66.5t22 -52.5t38.5 -41.5t46 -31.5t58.5 -25t62 -20t69 -19q174 -45 248 -83
q166 -84 182 -254q2 -20 2 -40q0 -129 -69 -223.5t-187.5 -141.5t-270.5 -47z" />
    <glyph glyph-name="scaron" unicode="&#x161;" horiz-adv-x="892" 
d="M510 1149l-154 294h98l122 -236l204 236h100l-258 -294h-112zM378 -19q-155 0 -244.5 72.5t-87.5 199.5l124 27q-4 -90 52.5 -142.5t157.5 -52.5q108 0 180 55t72 149q0 28 -11.5 50.5t-27.5 37t-49 28.5t-59.5 22t-74.5 21q-46 12 -78 22.5t-68.5 29.5t-59 41t-37.5 56
t-15 77q0 143 103.5 226t261.5 83q139 0 224 -65t84 -189l-119 -24q5 87 -49 131.5t-138 44.5q-100 0 -170 -53.5t-70 -142.5q0 -27 12 -48.5t27 -34.5t46 -25.5t52 -18.5t63 -17q50 -12 83.5 -22.5t74.5 -30t65 -43t41 -60.5t17 -83q0 -150 -107.5 -235.5t-274.5 -85.5z
" />
    <glyph glyph-name="uni0162" unicode="&#x162;" horiz-adv-x="955" 
d="M460 0h-29l-91 -142q49 7 60 7q88 0 135 -52.5t33 -138.5q-16 -87 -85.5 -146.5t-156.5 -59.5q-68 0 -129 35.5t-84 87.5l78 34q19 -33 62 -56t86 -23q53 0 96.5 37t53.5 91q10 57 -21.5 89.5t-91.5 32.5q-44 0 -86 -18l-57 45l117 177h-25l224 1269h-368l22 125h870
l-22 -125h-367z" />
    <glyph glyph-name="uni0163" unicode="&#x163;" horiz-adv-x="635" 
d="M412 859l-107 -604q-2 -13 -2 -36q0 -53 31 -81.5t84 -28.5h93l-19 -109h-40l-91 -142q49 7 60 7q88 0 135 -52.5t33 -138.5q-16 -87 -85.5 -146.5t-156.5 -59.5q-68 0 -129 35.5t-84 87.5l78 34q19 -33 62 -56t86 -23q53 0 96.5 37t53.5 91q10 57 -21.5 89.5t-91.5 32.5
q-44 0 -86 -18l-57 45l117 177q-94 2 -147.5 53.5t-53.5 141.5q0 38 5 58l107 606h-201l19 107h72q62 0 104.5 36t53.5 99l34 192h125l-58 -327h231l-18 -107h-232z" />
    <glyph glyph-name="Tcaron" unicode="&#x164;" horiz-adv-x="955" 
d="M719 1544h-112l-154 294h98l122 -236l204 236h100zM1073 1394l-22 -125h-367l-224 -1269h-135l224 1269h-368l22 125h870z" />
    <glyph glyph-name="tcaron" unicode="&#x165;" horiz-adv-x="639" 
d="M653 1203l123 608h143l-164 -608h-102zM381 0q-98 0 -154 52t-56 145q0 37 4 58l107 603h-201l20 110h71q63 0 105.5 35.5t54.5 99.5l33 191h128l-58 -326h231l-19 -110h-231l-107 -601q-2 -13 -2 -36q0 -53 31 -81.5t84 -28.5h93l-20 -111h-114z" />
    <glyph glyph-name="Tbar" unicode="&#x166;" horiz-adv-x="955" 
d="M1051 1269h-367l-93 -524h223l-17 -94h-222l-115 -651h-135l115 651h-222l17 94h221l93 524h-368l22 125h870z" />
    <glyph glyph-name="tbar" unicode="&#x167;" horiz-adv-x="635" 
d="M644 859h-232l-58 -328h173l-14 -94h-176l-32 -182q-2 -13 -2 -36q0 -53 31 -81.5t84 -28.5h93l-19 -109h-113q-97 0 -153 52t-56 143q0 38 5 58l32 184h-158l14 94h161l58 328h-201l19 107h72q62 0 104.5 36t53.5 99l34 192h125l-58 -327h231z" />
    <glyph glyph-name="Utilde" unicode="&#x168;" horiz-adv-x="1357" 
d="M1009 1530q-114 0 -162 108q-30 70 -99 70q-53 0 -94 -45.5t-54 -116.5h-79q19 105 85 173t154 68q110 0 160 -109q29 -68 101 -68q54 0 94 43.5t52 115.5h79q-18 -105 -83 -172t-154 -67zM597 -19q-192 0 -309.5 104t-117.5 279q0 52 9 94l165 936h136l-163 -928
q-9 -40 -9 -87q0 -132 79.5 -202t212.5 -70q160 0 281.5 98t152.5 272l162 917h135l-166 -947q-25 -142 -108.5 -249t-202.5 -162t-257 -55z" />
    <glyph glyph-name="utilde" unicode="&#x169;" horiz-adv-x="1050" 
d="M550 1286q-43 0 -75 -38t-43 -98h-83q17 96 75.5 157t137.5 61q99 0 140 -96q24 -53 81 -53q44 0 74.5 36t41.5 98h84q-17 -94 -75 -155.5t-137 -61.5q-99 0 -145 95q-25 55 -76 55zM729 370l105 596h131l-170 -966h-127l21 135q-55 -73 -133 -113.5t-169 -40.5
q-123 0 -198 68.5t-75 191.5q0 35 8 80l114 645h131l-110 -623q-7 -36 -7 -69q0 -90 49 -133.5t130 -43.5q111 0 194 72.5t105 200.5h1z" />
    <glyph glyph-name="Umacron" unicode="&#x16a;" horiz-adv-x="1357" 
d="M541 1544l16 91h641l-16 -91h-641zM597 -19q-192 0 -309.5 104t-117.5 279q0 52 9 94l165 936h136l-163 -928q-9 -40 -9 -87q0 -132 79.5 -202t212.5 -70q160 0 281.5 98t152.5 272l162 917h135l-166 -947q-25 -142 -108.5 -249t-202.5 -162t-257 -55z" />
    <glyph glyph-name="umacron" unicode="&#x16b;" horiz-adv-x="1050" 
d="M346 1261h641l-16 -91h-641zM729 370l105 596h131l-170 -966h-127l21 135q-55 -73 -133 -113.5t-169 -40.5q-123 0 -198 68.5t-75 191.5q0 35 8 80l114 645h131l-110 -623q-7 -36 -7 -69q0 -90 49 -133.5t130 -43.5q111 0 194 72.5t105 200.5h1z" />
    <glyph glyph-name="Uring" unicode="&#x16e;" horiz-adv-x="1357" 
d="M868 1544q-78 0 -125.5 47t-48.5 122q-1 93 66.5 162t165.5 69q79 0 125.5 -47t46.5 -120q2 -92 -65.5 -162.5t-164.5 -70.5zM877 1617q61 0 105.5 44t44.5 105q0 47 -30 78t-77 31q-61 0 -106.5 -47t-45.5 -106q0 -47 30 -76t79 -29zM597 -19q-192 0 -309.5 104
t-117.5 279q0 52 9 94l165 936h136l-163 -928q-9 -40 -9 -87q0 -132 79.5 -202t212.5 -70q160 0 281.5 98t152.5 272l162 917h135l-166 -947q-25 -142 -108.5 -249t-202.5 -162t-257 -55z" />
    <glyph glyph-name="uring" unicode="&#x16f;" horiz-adv-x="1050" 
d="M651 1106q-83 0 -136 59.5t-45 141.5q10 83 75 141.5t149 58.5q81 0 133.5 -58.5t43.5 -141.5q-8 -81 -73.5 -141t-146.5 -60zM544 1307q-6 -54 28 -90.5t88 -36.5q53 0 93 36t46 91q6 54 -26.5 92t-85.5 38q-54 0 -95.5 -38t-47.5 -92zM834 966h131l-170 -966h-127
l21 135q-55 -73 -133 -113.5t-169 -40.5q-123 0 -198 68.5t-75 191.5q0 35 8 80l114 645h131l-110 -623q-7 -36 -7 -69q0 -90 49 -133.5t130 -43.5q111 0 194 72.5t105 200.5h1z" />
    <glyph glyph-name="Uhungarumlaut" unicode="&#x170;" horiz-adv-x="1357" 
d="M634 1544l303 313l66 -57l-269 -256h-100zM988 1544l303 313l66 -57l-269 -256h-100zM597 -19q-192 0 -309.5 104t-117.5 279q0 52 9 94l165 936h136l-163 -928q-9 -40 -9 -87q0 -132 79.5 -202t212.5 -70q160 0 281.5 98t152.5 272l162 917h135l-166 -947
q-25 -142 -108.5 -249t-202.5 -162t-257 -55z" />
    <glyph glyph-name="uhungarumlaut" unicode="&#x171;" horiz-adv-x="1050" 
d="M786 1401l-270 -256h-99l303 313zM870 1145h-99l303 313l66 -57zM729 370l105 596h131l-170 -966h-127l21 135q-55 -73 -133 -113.5t-169 -40.5q-123 0 -198 68.5t-75 191.5q0 35 8 80l114 645h131l-110 -623q-7 -36 -7 -69q0 -90 49 -133.5t130 -43.5q111 0 194 72.5
t105 200.5h1z" />
    <glyph glyph-name="Uogonek" unicode="&#x172;" horiz-adv-x="1357" 
d="M1196 1394h135l-166 -947q-30 -166 -135.5 -281t-256.5 -160q-114 -101 -150 -146q-30 -39 -35 -64q-5 -22 13 -33.5t60 -11.5q47 0 91 26l-20 -108q-44 -15 -98 -15q-86 0 -123.5 23.5t-30.5 65.5q13 79 192 242q-33 -4 -75 -4q-192 0 -309.5 104t-117.5 279q0 52 9 94
l165 936h136l-163 -928q-9 -40 -9 -87q0 -132 79.5 -202t212.5 -70q160 0 281.5 98t152.5 272z" />
    <glyph glyph-name="uogonek" unicode="&#x173;" horiz-adv-x="1050" 
d="M795 0q-8 -7 -39.5 -35t-54 -49t-50 -49.5t-44.5 -53.5t-20 -44q-5 -22 13 -33.5t60 -11.5q47 0 91 26l-20 -108q-43 -15 -98 -15q-86 0 -123.5 23.5t-30.5 65.5q9 52 74 124t164 160h-49l21 135q-55 -73 -133 -113.5t-169 -40.5q-123 0 -198 68.5t-75 191.5q0 35 8 80
l114 645h131l-110 -623q-7 -36 -7 -69q0 -90 49 -133.5t130 -43.5q111 0 194 72.5t105 200.5h1l105 596h131z" />
    <glyph glyph-name="Wcircumflex" unicode="&#x174;" horiz-adv-x="1954" 
d="M998 1544h-97l257 294h112l154 -294h-99l-122 234zM387 0l-167 1394h140l141 -1184l573 1184h124l150 -1184l566 1184h140l-657 -1394h-146l-154 1152l-564 -1152h-146z" />
    <glyph glyph-name="wcircumflex" unicode="&#x175;" horiz-adv-x="1508" 
d="M915 1383l-205 -234h-97l257 294h112l154 -294h-99zM1421 966h141l-502 -966h-116l-138 785l-416 -785h-117l-155 966h137l116 -783l414 783h101l137 -787z" />
    <glyph glyph-name="Ycircumflex" unicode="&#x176;" horiz-adv-x="1124" 
d="M787 1778l-205 -234h-97l257 294h112l154 -294h-99zM1250 1394l-591 -732l-116 -662h-137l117 667l-328 727h152l263 -606l476 606h164z" />
    <glyph glyph-name="ycircumflex" unicode="&#x177;" horiz-adv-x="920" 
d="M616 1383l-205 -234h-97l257 294h112l154 -294h-99zM834 966h145l-797 -1421h-142l269 480l-198 941h145l148 -797z" />
    <glyph glyph-name="Ydieresis" unicode="&#x178;" horiz-adv-x="1124" 
d="M571 1544q-38 0 -61.5 28.5t-17.5 66.5q8 40 41.5 68t72.5 28t62 -28t15 -68q-6 -38 -39.5 -66.5t-72.5 -28.5zM923 1544q-39 0 -62 28t-17 67q8 40 41 68t72 28t62.5 -28t15.5 -68q-6 -38 -40 -66.5t-72 -28.5zM1250 1394l-591 -732l-116 -662h-137l117 667l-328 727
h152l263 -606l476 606h164z" />
    <glyph glyph-name="Zacute" unicode="&#x179;" horiz-adv-x="1193" 
d="M1101 1800l-269 -256h-100l303 313zM1248 1394l-19 -115l-1038 -1153h864l-22 -126h-1038l19 114l1043 1155h-835l22 125h1004z" />
    <glyph glyph-name="zacute" unicode="&#x17a;" horiz-adv-x="854" 
d="M864 1401l-270 -256h-99l303 313zM885 966l-692 -855h544l-19 -111h-763l688 855h-506l19 111h729z" />
    <glyph glyph-name="Zdotaccent" unicode="&#x17b;" horiz-adv-x="1193" 
d="M791 1544q-41 0 -65 29.5t-19 70.5q9 42 44 71t76 29t65.5 -29.5t15.5 -70.5q-6 -40 -41 -70t-76 -30zM1248 1394l-19 -115l-1038 -1153h864l-22 -126h-1038l19 114l1043 1155h-835l22 125h1004z" />
    <glyph glyph-name="zdotaccent" unicode="&#x17c;" horiz-adv-x="854" 
d="M581 1263q-41 0 -67 29.5t-22 70.5q4 42 36.5 71t74.5 29q41 0 68 -29.5t21 -70.5q-5 -41 -38 -70.5t-73 -29.5zM885 966l-692 -855h544l-19 -111h-763l688 855h-506l19 111h729z" />
    <glyph glyph-name="Zcaron" unicode="&#x17d;" horiz-adv-x="1193" 
d="M846 1544h-112l-154 294h98l122 -236l204 236h100zM1248 1394l-19 -115l-1038 -1153h864l-22 -126h-1038l19 114l1043 1155h-835l22 125h1004z" />
    <glyph glyph-name="zcaron" unicode="&#x17e;" horiz-adv-x="854" 
d="M609 1149h-112l-154 294h98l122 -236l204 236h100zM885 966l-692 -855h544l-19 -111h-763l688 855h-506l19 111h729z" />
    <glyph glyph-name="florin" unicode="&#x192;" horiz-adv-x="980" 
d="M8 -371l410 1220h-173l39 119h174l103 312q38 117 144.5 196.5t221.5 79.5q38 0 74 -11.5t54 -26.5l-25 -107q-32 33 -92 33q-81 0 -151.5 -53.5t-96.5 -134.5l-97 -288h289l-39 -119h-289l-412 -1220h-134z" />
    <glyph glyph-name="Ohorn" unicode="&#x1a0;" horiz-adv-x="1604" 
d="M1635 1457h99l-16 -89q-21 -123 -75 -179t-129 -56q-22 0 -41 4q67 -126 67 -290q0 -111 -26.5 -218.5t-75 -203.5t-121 -177.5t-161.5 -140.5t-199.5 -92.5t-231.5 -33.5q-262 0 -423 152t-161 416q0 133 36.5 260t108.5 236t169.5 191.5t227.5 129.5t275 47
q140 0 255 -46.5t193 -133.5q45 -26 94 -26q92 0 119 155zM730 112q120 0 227.5 40t188 110t139.5 161.5t89 198t30 217.5q0 209 -124.5 325t-326.5 116q-151 0 -280 -61.5t-215 -163t-134 -232t-48 -268.5q0 -211 125 -327t329 -116z" />
    <glyph glyph-name="ohorn" unicode="&#x1a1;" horiz-adv-x="1121" 
d="M1158 1094h99l-16 -89q-21 -123 -75 -179t-129 -56q-17 0 -35 3q38 -82 38 -188q0 -113 -40 -221t-111 -193t-177.5 -137.5t-230.5 -52.5q-178 0 -289 108.5t-111 291.5q0 90 25 178t73.5 164.5t115 135t155.5 92.5t189 34q193 0 304 -122q39 -19 80 -19q92 0 119 155z
M484 95q93 0 174.5 43t135.5 112.5t85 155.5t31 173q0 134 -76 213.5t-199 79.5q-94 0 -175.5 -43.5t-134.5 -113.5t-83 -156t-30 -173q0 -134 74.5 -212.5t197.5 -78.5z" />
    <glyph glyph-name="Uhorn" unicode="&#x1af;" horiz-adv-x="1357" 
d="M1513 1499h99l-16 -89q-21 -123 -75 -179t-129 -56q-45 0 -96 19l-131 -747q-25 -142 -108.5 -249t-202.5 -162t-257 -55q-192 0 -309.5 104t-117.5 279q0 52 9 94l165 936h136l-163 -928q-9 -40 -9 -87q0 -132 79.5 -202t212.5 -70q160 0 281.5 98t152.5 272l162 917
h135l-23 -131q37 -14 70 -14q92 0 119 155z" />
    <glyph glyph-name="uhorn" unicode="&#x1b0;" horiz-adv-x="1050" 
d="M1165 1071h99l-16 -89q-21 -123 -75 -179t-129 -56q-53 0 -113 26l-136 -773h-127l21 135q-55 -73 -133 -113.5t-169 -40.5q-123 0 -198 68.5t-75 191.5q0 35 8 80l114 645h131l-110 -623q-7 -36 -7 -69q0 -90 49 -133.5t130 -43.5q111 0 194 72.5t105 200.5h1l105 596
h131l-22 -123q43 -22 87 -22q92 0 119 155z" />
    <glyph glyph-name="uni01CD" unicode="&#x1cd;" horiz-adv-x="1288" 
d="M885 1544h-112l-154 294h98l122 -236l204 236h100zM1010 0l-64 351h-648l-189 -351h-144l760 1394h159l268 -1394h-142zM364 475h559l-141 776z" />
    <glyph glyph-name="uni01CE" unicode="&#x1ce;" horiz-adv-x="1196" 
d="M770 1151h-112l-154 294h98l122 -236l204 236h100zM980 966h130l-171 -966h-125l30 202q-68 -102 -171.5 -162t-215.5 -60q-166 0 -271 110t-105 292q0 86 24.5 173.5t72 164t111.5 136t148.5 94.5t177.5 35q121 0 208 -64.5t119 -171.5zM487 98q73 0 141 29t118.5 78
t88 109.5t57 126t19.5 126.5q0 131 -76.5 216.5t-199.5 85.5q-74 0 -141.5 -28t-117.5 -76t-87.5 -109t-56.5 -129t-19 -134q0 -134 76 -214.5t198 -80.5z" />
    <glyph glyph-name="uni01CF" unicode="&#x1cf;" horiz-adv-x="561" 
d="M410 1544l-154 294h98l122 -236l204 236h100l-258 -294h-112zM128 0l245 1394h135l-245 -1394h-135z" />
    <glyph glyph-name="uni01D0" unicode="&#x1d0;" horiz-adv-x="474" 
d="M299 1151l-154 294h98l122 -236l204 236h100l-258 -294h-112zM84 0l171 968h135l-171 -968h-135z" />
    <glyph glyph-name="uni01D1" unicode="&#x1d1;" horiz-adv-x="1604" 
d="M933 1544l-154 294h98l122 -236l204 236h100l-258 -294h-112zM725 -19q-262 0 -423 152t-161 416q0 133 36.5 260t108.5 236t169.5 191.5t227.5 129.5t275 47q259 0 420.5 -152t161.5 -414q0 -111 -26.5 -218.5t-75 -203.5t-121 -177.5t-161.5 -140.5t-199.5 -92.5
t-231.5 -33.5zM730 112q120 0 227.5 40t188 110t139.5 161.5t89 198t30 217.5q0 209 -124.5 325t-326.5 116q-151 0 -280 -61.5t-215 -163t-134 -232t-48 -268.5q0 -211 125 -327t329 -116z" />
    <glyph glyph-name="uni01D2" unicode="&#x1d2;" horiz-adv-x="1121" 
d="M620 1149l-154 294h98l122 -236l204 236h100l-258 -294h-112zM481 -19q-178 0 -289 108.5t-111 291.5q0 90 25 178t73.5 164.5t115 135t155.5 92.5t189 34q180 0 290.5 -108.5t110.5 -291.5q0 -113 -40 -221t-111 -193t-177.5 -137.5t-230.5 -52.5zM484 95q93 0 174.5 43
t135.5 112.5t85 155.5t31 173q0 134 -76 213.5t-199 79.5q-94 0 -175.5 -43.5t-134.5 -113.5t-83 -156t-30 -173q0 -134 74.5 -212.5t197.5 -78.5z" />
    <glyph glyph-name="uni01D3" unicode="&#x1d3;" horiz-adv-x="1357" 
d="M805 1544l-154 294h98l122 -236l204 236h100l-258 -294h-112zM597 -19q-192 0 -309.5 104t-117.5 279q0 52 9 94l165 936h136l-163 -928q-9 -40 -9 -87q0 -132 79.5 -202t212.5 -70q160 0 281.5 98t152.5 272l162 917h135l-166 -947q-25 -142 -108.5 -249t-202.5 -162
t-257 -55z" />
    <glyph glyph-name="uni01D4" unicode="&#x1d4;" horiz-adv-x="1050" 
d="M700 1149h-112l-154 294h98l122 -236l204 236h100zM834 966h131l-170 -966h-127l21 135q-55 -73 -133 -113.5t-169 -40.5q-123 0 -198 68.5t-75 191.5q0 35 8 80l114 645h131l-110 -623q-7 -36 -7 -69q0 -90 49 -133.5t130 -43.5q111 0 194 72.5t105 200.5h1z" />
    <glyph glyph-name="uni01D5" unicode="&#x1d5;" horiz-adv-x="1357" 
d="M601 1885l16 91h641l-16 -91h-641zM686 1544q-38 0 -61.5 28.5t-17.5 66.5q8 40 41.5 68t72.5 28t62 -28t15 -68q-6 -38 -39.5 -66.5t-72.5 -28.5zM1038 1544q-39 0 -62 28t-17 67q8 40 41 68t72 28q40 0 63 -28t15 -68q-6 -38 -40 -66.5t-72 -28.5zM597 -19
q-192 0 -309.5 104t-117.5 279q0 52 9 94l165 936h136l-163 -928q-9 -40 -9 -87q0 -132 79.5 -202t212.5 -70q160 0 281.5 98t152.5 272l162 917h135l-166 -947q-25 -142 -108.5 -249t-202.5 -162t-257 -55z" />
    <glyph glyph-name="uni01D6" unicode="&#x1d6;" horiz-adv-x="1050" 
d="M433 1755h641l-16 -91h-641zM494 1263q-41 0 -67 30t-21 70q4 42 36.5 71t73.5 29t67.5 -29t22.5 -71q-4 -40 -37.5 -70t-74.5 -30zM961 1363q-5 -41 -38.5 -70.5t-73.5 -29.5q-41 0 -67.5 30t-21.5 70q4 42 37 71t74 29t67.5 -29t22.5 -71zM729 370l105 596h131
l-170 -966h-127l21 135q-55 -73 -133 -113.5t-169 -40.5q-123 0 -198 68.5t-75 191.5q0 35 8 80l114 645h131l-110 -623q-7 -36 -7 -69q0 -90 49 -133.5t130 -43.5q111 0 194 72.5t105 200.5h1z" />
    <glyph glyph-name="uni01D7" unicode="&#x1d7;" horiz-adv-x="1357" 
d="M863 1885l303 313l66 -57l-269 -256h-100zM686 1544q-38 0 -61.5 28.5t-17.5 66.5q8 40 41.5 68t72.5 28t62 -28t15 -68q-6 -38 -39.5 -66.5t-72.5 -28.5zM1038 1544q-39 0 -62 28t-17 67q8 40 41 68t72 28q40 0 63 -28t15 -68q-6 -38 -40 -66.5t-72 -28.5zM597 -19
q-192 0 -309.5 104t-117.5 279q0 52 9 94l165 936h136l-163 -928q-9 -40 -9 -87q0 -132 79.5 -202t212.5 -70q160 0 281.5 98t152.5 272l162 917h135l-166 -947q-25 -142 -108.5 -249t-202.5 -162t-257 -55z" />
    <glyph glyph-name="uni01D8" unicode="&#x1d8;" horiz-adv-x="1050" 
d="M1042 1895l-270 -256h-99l303 313zM494 1263q-41 0 -67 30t-21 70q4 42 36.5 71t73.5 29t67.5 -29t22.5 -71q-4 -40 -37.5 -70t-74.5 -30zM760 1363q4 42 37 71t74 29t67.5 -29t22.5 -71q-5 -41 -38.5 -70.5t-73.5 -29.5q-41 0 -67.5 30t-21.5 70zM729 370l105 596h131
l-170 -966h-127l21 135q-55 -73 -133 -113.5t-169 -40.5q-123 0 -198 68.5t-75 191.5q0 35 8 80l114 645h131l-110 -623q-7 -36 -7 -69q0 -90 49 -133.5t130 -43.5q111 0 194 72.5t105 200.5h1z" />
    <glyph glyph-name="uni01D9" unicode="&#x1d9;" horiz-adv-x="1357" 
d="M865 1885l-154 294h98l122 -236l204 236h100l-258 -294h-112zM686 1544q-38 0 -61.5 28.5t-17.5 66.5q8 40 41.5 68t72.5 28t62 -28t15 -68q-6 -38 -39.5 -66.5t-72.5 -28.5zM1038 1544q-39 0 -62 28t-17 67q8 40 41 68t72 28q40 0 63 -28t15 -68q-6 -38 -40 -66.5
t-72 -28.5zM597 -19q-192 0 -309.5 104t-117.5 279q0 52 9 94l165 936h136l-163 -928q-9 -40 -9 -87q0 -132 79.5 -202t212.5 -70q160 0 281.5 98t152.5 272l162 917h135l-166 -947q-25 -142 -108.5 -249t-202.5 -162t-257 -55z" />
    <glyph glyph-name="uni01DA" unicode="&#x1da;" horiz-adv-x="1050" 
d="M787 1643h-112l-154 294h98l122 -236l204 236h100zM494 1263q-41 0 -67 30t-21 70q4 42 36.5 71t73.5 29t67.5 -29t22.5 -71q-4 -40 -37.5 -70t-74.5 -30zM760 1363q4 42 37 71t74 29t67.5 -29t22.5 -71q-5 -41 -38.5 -70.5t-73.5 -29.5q-41 0 -67.5 30t-21.5 70z
M729 370l105 596h131l-170 -966h-127l21 135q-55 -73 -133 -113.5t-169 -40.5q-123 0 -198 68.5t-75 191.5q0 35 8 80l114 645h131l-110 -623q-7 -36 -7 -69q0 -90 49 -133.5t130 -43.5q111 0 194 72.5t105 200.5h1z" />
    <glyph glyph-name="uni01DB" unicode="&#x1db;" horiz-adv-x="1357" 
d="M873 1885l-178 256l86 57l192 -313h-100zM686 1544q-38 0 -61.5 28.5t-17.5 66.5q8 40 41.5 68t72.5 28t62 -28t15 -68q-6 -38 -39.5 -66.5t-72.5 -28.5zM1038 1544q-39 0 -62 28t-17 67q8 40 41 68t72 28q40 0 63 -28t15 -68q-6 -38 -40 -66.5t-72 -28.5zM597 -19
q-192 0 -309.5 104t-117.5 279q0 52 9 94l165 936h136l-163 -928q-9 -40 -9 -87q0 -132 79.5 -202t212.5 -70q160 0 281.5 98t152.5 272l162 917h135l-166 -947q-25 -142 -108.5 -249t-202.5 -162t-257 -55z" />
    <glyph glyph-name="uni01DC" unicode="&#x1dc;" horiz-adv-x="1050" 
d="M782 1639h-100l-178 256l86 57zM494 1263q-41 0 -67 30t-21 70q4 42 36.5 71t73.5 29t67.5 -29t22.5 -71q-4 -40 -37.5 -70t-74.5 -30zM849 1263q-41 0 -67.5 30t-21.5 70q4 42 37 71t74 29t67.5 -29t22.5 -71q-5 -41 -38.5 -70.5t-73.5 -29.5zM834 966h131l-170 -966
h-127l21 135q-55 -73 -133 -113.5t-169 -40.5q-123 0 -198 68.5t-75 191.5q0 35 8 80l114 645h131l-110 -623q-7 -36 -7 -69q0 -90 49 -133.5t130 -43.5q111 0 194 72.5t105 200.5h1z" />
    <glyph glyph-name="Scommaaccent" unicode="&#x218;" horiz-adv-x="1226" 
d="M575 -19q-219 0 -355.5 97.5t-146.5 262.5l139 26q9 -121 111.5 -192.5t258.5 -71.5q169 0 276 72.5t107 200.5q0 139 -129 209q-61 32 -214 73l-1 1h-1h-1h-1l-1 1h-2q-51 14 -83.5 23.5t-77.5 26.5t-73 34t-60 44t-49.5 58t-29.5 73.5t-12 93.5q0 172 141.5 286
t351.5 114q198 0 330.5 -86t140.5 -245l-134 -28q-6 79 -55.5 134t-121.5 79t-159 24q-152 0 -255.5 -77.5t-103.5 -187.5q0 -36 9 -66.5t22 -52.5t38.5 -41.5t46 -31.5t58.5 -25t62 -20t69 -19q174 -45 248 -83q166 -84 182 -254q2 -20 2 -40q0 -129 -69 -223.5
t-187.5 -141.5t-270.5 -47zM282 -554l-70 33l222 363h128z" />
    <glyph glyph-name="scommaaccent" unicode="&#x219;" horiz-adv-x="892" 
d="M378 -19q-155 0 -244.5 72.5t-87.5 199.5l124 27q-4 -90 52.5 -142.5t157.5 -52.5q108 0 180 55t72 149q0 28 -11.5 50.5t-27.5 37t-49 28.5t-59.5 22t-74.5 21q-46 12 -78 22.5t-68.5 29.5t-59 41t-37.5 56t-15 77q0 143 103.5 226t261.5 83q139 0 224 -65t84 -189
l-119 -24q5 87 -49 131.5t-138 44.5q-100 0 -170 -53.5t-70 -142.5q0 -27 12 -48.5t27 -34.5t46 -25.5t52 -18.5t63 -17q50 -12 83.5 -22.5t74.5 -30t65 -43t41 -60.5t17 -83q0 -150 -107.5 -235.5t-274.5 -85.5zM120 -554l-70 33l222 363h128z" />
    <glyph glyph-name="uni021A" unicode="&#x21a;" horiz-adv-x="955" 
d="M1073 1394l-22 -125h-367l-224 -1269h-135l224 1269h-368l22 125h870zM78 -521l222 363h128l-280 -396z" />
    <glyph glyph-name="uni021B" unicode="&#x21b;" horiz-adv-x="635" 
d="M379 0q-97 0 -153 52t-56 143q0 38 5 58l107 606h-201l19 107h72q62 0 104.5 36t53.5 99l34 192h125l-58 -327h231l-18 -107h-232l-107 -604q-2 -13 -2 -36q0 -53 31 -81.5t84 -28.5h93l-19 -109h-113zM169 -554l-70 33l222 363h128z" />
    <glyph glyph-name="uni0237" unicode="&#x237;" horiz-adv-x="475" 
d="M-223 -452l20 121q72 0 116.5 14t78.5 54.5t54.5 103.5t39.5 171l169 956h136l-170 -966q-46 -257 -143.5 -355.5t-300.5 -98.5z" />
    <glyph glyph-name="circumflex" unicode="&#x2c6;" horiz-adv-x="659" 
d="M299 1242h-97l257 294h112l154 -294h-99l-122 234z" />
    <glyph glyph-name="caron" unicode="&#x2c7;" horiz-adv-x="669" 
d="M411 1242l-154 294h98l122 -236l204 236h100l-258 -294h-112z" />
    <glyph glyph-name="breve" unicode="&#x2d8;" horiz-adv-x="874" 
d="M566 1230q-143 0 -222 85t-55 221h88q-17 -100 40.5 -165t161.5 -65q106 0 187.5 65.5t97.5 164.5h87q-24 -137 -132 -221.5t-253 -84.5z" />
    <glyph glyph-name="dotaccent" unicode="&#x2d9;" horiz-adv-x="482" 
d="M385 1265q-41 0 -67 29.5t-22 70.5q4 42 36.5 71t74.5 29q41 0 68 -29.5t21 -70.5q-5 -41 -38 -70.5t-73 -29.5z" />
    <glyph glyph-name="ring" unicode="&#x2da;" horiz-adv-x="643" 
d="M440 1164q-83 0 -136 59.5t-45 141.5q10 83 75 141.5t149 58.5q81 0 133.5 -58.5t43.5 -141.5q-8 -81 -73.5 -141t-146.5 -60zM449 1238q53 0 93 36t46 91q6 54 -26.5 92t-85.5 38q-54 0 -95.5 -38t-47.5 -92t28 -90.5t88 -36.5z" />
    <glyph glyph-name="ogonek" unicode="&#x2db;" horiz-adv-x="489" 
d="M95 -373q-86 0 -123.5 23.5t-30.5 65.5q6 39 54.5 99t94 103.5t117.5 106.5l50 -25q-8 -7 -39.5 -35t-54 -49t-50 -49.5t-44.5 -53.5t-20 -44q-5 -22 13 -33.5t60 -11.5q47 0 91 26l-20 -108q-43 -15 -98 -15z" />
    <glyph glyph-name="tilde" unicode="&#x2dc;" horiz-adv-x="862" 
d="M672 1138q-99 0 -145 95q-25 55 -76 55q-43 0 -75 -38t-43 -98h-83q17 96 75.5 157t137.5 61q99 0 140 -96q24 -53 81 -53q44 0 74.5 36t41.5 98h84q-17 -94 -75 -155.5t-137 -61.5z" />
    <glyph glyph-name="hungarumlaut" unicode="&#x2dd;" horiz-adv-x="805" 
d="M171 1238l303 313l66 -57l-270 -256h-99zM525 1238l303 313l66 -57l-270 -256h-99z" />
    <glyph glyph-name="gravecomb" unicode="&#x300;" 
d="M-22 1238l-178 256l86 57l192 -313h-100z" />
    <glyph glyph-name="acutecomb" unicode="&#x301;" 
d="M-264 1238l303 313l66 -57l-270 -256h-99z" />
    <glyph glyph-name="uni0302" unicode="&#x302;" 
d="M-360 1242h-97l257 294h112l154 -294h-99l-122 234z" />
    <glyph glyph-name="tildecomb" unicode="&#x303;" 
d="M-190 1138q-99 0 -145 95q-25 55 -76 55q-43 0 -75 -38t-43 -98h-83q17 96 75.5 157t137.5 61q99 0 140 -96q24 -53 81 -53q44 0 74.5 36t41.5 98h84q-17 -94 -75 -155.5t-137 -61.5z" />
    <glyph glyph-name="uni0304" unicode="&#x304;" 
d="M-668 1263l16 91h641l-16 -91h-641z" />
    <glyph glyph-name="uni0306" unicode="&#x306;" 
d="M-308 1230q-143 0 -222 85t-55 221h88q-17 -100 40.5 -165t161.5 -65q106 0 187.5 65.5t97.5 164.5h87q-24 -137 -132 -221.5t-253 -84.5z" />
    <glyph glyph-name="uni0307" unicode="&#x307;" 
d="M-95 1265q-41 0 -67 29.5t-22 70.5q4 42 36.5 71t74.5 29q41 0 68 -29.5t21 -70.5q-5 -41 -38 -70.5t-73 -29.5z" />
    <glyph glyph-name="uni0308" unicode="&#x308;" 
d="M-451 1265q-41 0 -67 30t-21 70q4 42 36.5 71t73.5 29t67.5 -29t22.5 -71q-4 -40 -37.5 -70t-74.5 -30zM-96 1265q-41 0 -67.5 30t-21.5 70q4 42 37 71t74 29t67.5 -29t22.5 -71q-5 -41 -38.5 -70.5t-73.5 -29.5z" />
    <glyph glyph-name="hookabovecomb" unicode="&#x309;" 
d="M-200 1160l21 114q125 27 141 115q6 39 -14.5 64.5t-62.5 25.5q-47 0 -91 -29l-36 61q68 45 137 45q78 0 121 -46.5t30 -119.5q-20 -114 -157 -156l-14 -74h-75z" />
    <glyph glyph-name="uni030A" unicode="&#x30a;" 
d="M-187 1164q-83 0 -136 59.5t-45 141.5q10 83 75 141.5t149 58.5q81 0 133.5 -58.5t43.5 -141.5q-8 -81 -73.5 -141t-146.5 -60zM-178 1238q53 0 93 36t46 91q6 54 -26.5 92t-85.5 38q-54 0 -95.5 -38t-47.5 -92t28 -90.5t88 -36.5z" />
    <glyph glyph-name="uni030B" unicode="&#x30b;" 
d="M-618 1238l303 313l66 -57l-270 -256h-99zM-264 1238l303 313l66 -57l-270 -256h-99z" />
    <glyph glyph-name="uni030C" unicode="&#x30c;" 
d="M-258 1242l-154 294h98l122 -236l204 236h100l-258 -294h-112z" />
    <glyph glyph-name="uni0312" unicode="&#x312;" 
d="M120 1527l-281 -299h-145l324 299h102z" />
    <glyph glyph-name="uni031B" unicode="&#x31b;" 
d="M-252 803q-84 0 -163 54l51 48q47 -28 98 -28q92 0 119 155l16 95h99l-16 -89q-21 -123 -75 -179t-129 -56z" />
    <glyph glyph-name="dotbelowcomb" unicode="&#x323;" 
d="M-415 -512q-41 0 -66 29t-18 71q8 41 43 70.5t75 29.5q41 0 65.5 -30t17.5 -70q-7 -42 -42 -71t-75 -29z" />
    <glyph glyph-name="uni0326" unicode="&#x326;" 
d="M-465 -554l-70 33l222 363h128z" />
    <glyph glyph-name="uni0327" unicode="&#x327;" 
d="M-469 -532q-68 0 -129 35.5t-84 87.5l78 34q19 -33 62 -56t86 -23q53 0 96.5 37t53.5 91q10 57 -21.5 89.5t-91.5 32.5q-44 0 -86 -18l-57 45l145 219h80l-118 -184q49 7 60 7q88 0 135 -52.5t33 -138.5q-16 -87 -85.5 -146.5t-156.5 -59.5z" />
    <glyph glyph-name="uni0328" unicode="&#x328;" 
d="M-378 -373q-86 0 -123.5 23.5t-30.5 65.5q6 39 54.5 99t94 103.5t117.5 106.5l50 -25q-8 -7 -39.5 -35t-54 -49t-50 -49.5t-44.5 -53.5t-20 -44q-5 -22 13 -33.5t60 -11.5q47 0 91 26l-20 -108q-44 -15 -98 -15z" />
    <glyph glyph-name="uni0335" unicode="&#x335;" 
d="M-744 489l17 94h579l-17 -94h-579z" />
    <glyph glyph-name="uni0336" unicode="&#x336;" 
d="M-1613 491l14 83h1449l-14 -83h-1449z" />
    <glyph glyph-name="uni0337" unicode="&#x337;" 
d="M-601 284l20 110l576 382l-20 -110z" />
    <glyph glyph-name="uni0338" unicode="&#x338;" 
d="M-748 214l813 1165l76 -47l-814 -1165z" />
    <glyph glyph-name="uni0394" unicode="&#x394;" horiz-adv-x="1477" 
d="M999 1536l344 -1536h-1382l889 1536h149zM182 124h992l-274 1260z" />
    <glyph glyph-name="uni03A9" unicode="&#x3a9;" horiz-adv-x="1812" 
d="M1719 932q0 -152 -63 -309.5t-176 -290.5t-255 -215h412l-20 -117h-606l14 103q239 112 393 345t154 477q0 100 -29.5 189.5t-87 160.5t-151.5 113t-214 42q-134 0 -254 -47t-207 -126.5t-151.5 -181.5t-96.5 -214.5t-32 -223.5q0 -187 83.5 -328t211.5 -211l-13 -98
h-607l20 117h417l5 5q-111 82 -186 226t-75 323q0 126 39.5 252t117.5 238t183.5 199t247 137.5t298.5 50.5q152 0 274.5 -52t198 -139.5t115.5 -196.5t40 -228z" />
    <glyph glyph-name="uni03BC" unicode="&#x3bc;" horiz-adv-x="1164" 
d="M947 968h133l-171 -968h-133l26 147q-66 -77 -153.5 -121t-180.5 -44q-83 0 -151 33.5t-112 93.5l-96 -543h-103l247 1402h134l-104 -590q-6 -29 -6 -53q0 -98 63 -162t161 -64q118 0 217 81t125 196z" />
    <glyph glyph-name="pi" unicode="&#x3c0;" horiz-adv-x="1213" 
d="M58 2q84 143 175.5 392t143.5 465q-106 -1 -164.5 -10t-103.5 -29l-8 102q97 46 304 46h876l-31 -111h-187l-102 -575q-34 -198 -20 -284l-120 4q-9 21 -9 72q0 86 22 201l103 582h-441q-49 -209 -142.5 -475t-170.5 -384z" />
    <glyph glyph-name="Wgrave" unicode="&#x1e80;" horiz-adv-x="1954" 
d="M1114 1544l-178 256l86 57l192 -313h-100zM387 0l-167 1394h140l141 -1184l573 1184h124l150 -1184l566 1184h140l-657 -1394h-146l-154 1152l-564 -1152h-146z" />
    <glyph glyph-name="wgrave" unicode="&#x1e81;" horiz-adv-x="1508" 
d="M925 1145h-100l-178 256l86 57zM1421 966h141l-502 -966h-116l-138 785l-416 -785h-117l-155 966h137l116 -783l414 783h101l137 -787z" />
    <glyph glyph-name="Wacute" unicode="&#x1e82;" horiz-adv-x="1954" 
d="M1104 1544l303 313l66 -57l-269 -256h-100zM387 0l-167 1394h140l141 -1184l573 1184h124l150 -1184l566 1184h140l-657 -1394h-146l-154 1152l-564 -1152h-146z" />
    <glyph glyph-name="wacute" unicode="&#x1e83;" horiz-adv-x="1508" 
d="M1185 1401l-270 -256h-99l303 313zM1421 966h141l-502 -966h-116l-138 785l-416 -785h-117l-155 966h137l116 -783l414 783h101l137 -787z" />
    <glyph glyph-name="Wdieresis" unicode="&#x1e84;" horiz-adv-x="1954" 
d="M987 1544q-38 0 -61.5 28.5t-17.5 66.5q8 40 41.5 68t72.5 28t62 -28t15 -68q-6 -38 -39.5 -66.5t-72.5 -28.5zM1339 1544q-39 0 -62 28t-17 67q8 40 41 68t72 28t62.5 -28t15.5 -68q-6 -38 -40 -66.5t-72 -28.5zM387 0l-167 1394h140l141 -1184l573 1184h124l150 -1184
l566 1184h140l-657 -1394h-146l-154 1152l-564 -1152h-146z" />
    <glyph glyph-name="wdieresis" unicode="&#x1e85;" horiz-adv-x="1508" 
d="M724 1263q-41 0 -67 30t-21 70q4 42 36.5 71t73.5 29t67.5 -29t22.5 -71q-4 -40 -37.5 -70t-74.5 -30zM1079 1263q-41 0 -67.5 30t-21.5 70q4 42 37 71t74 29t67.5 -29t22.5 -71q-5 -41 -38.5 -70.5t-73.5 -29.5zM1421 966h141l-502 -966h-116l-138 785l-416 -785h-117
l-155 966h137l116 -783l414 783h101l137 -787z" />
    <glyph glyph-name="uni1EA0" unicode="&#x1ea0;" horiz-adv-x="1288" 
d="M1152 0h-142l-64 351h-648l-189 -351h-144l760 1394h159zM364 475h559l-141 776zM503 -312q41 0 65.5 -30t17.5 -70q-7 -42 -42 -71t-75 -29q-41 0 -66 29t-18 71q8 41 43 70.5t75 29.5z" />
    <glyph glyph-name="uni1EA1" unicode="&#x1ea1;" horiz-adv-x="1196" 
d="M980 966h130l-171 -966h-125l30 202q-68 -102 -171.5 -162t-215.5 -60q-166 0 -271 110t-105 292q0 86 24.5 173.5t72 164t111.5 136t148.5 94.5t177.5 35q121 0 208 -64.5t119 -171.5zM487 98q73 0 141 29t118.5 78t88 109.5t57 126t19.5 126.5q0 131 -76.5 216.5
t-199.5 85.5q-74 0 -141.5 -28t-117.5 -76t-87.5 -109t-56.5 -129t-19 -134q0 -134 76 -214.5t198 -80.5zM432 -312q41 0 65.5 -30t17.5 -70q-7 -42 -42 -71t-75 -29q-41 0 -66 29t-18 71q8 41 43 70.5t75 29.5z" />
    <glyph glyph-name="uni1EA2" unicode="&#x1ea2;" horiz-adv-x="1288" 
d="M876 1854q-43 0 -91 -29l-36 60q67 46 137 46q78 0 121 -47t31 -119q-20 -116 -159 -156l-13 -74h-74l21 114q124 27 140 114q6 40 -14 65.5t-63 25.5zM1010 0l-64 351h-648l-189 -351h-144l760 1394h159l268 -1394h-142zM364 475h559l-141 776z" />
    <glyph glyph-name="uni1EA3" unicode="&#x1ea3;" horiz-adv-x="1196" 
d="M749 1388q-47 0 -91 -29l-36 61q68 45 137 45q78 0 121 -46.5t30 -119.5q-20 -114 -157 -156l-14 -74h-75l21 114q125 27 141 115q6 39 -14.5 64.5t-62.5 25.5zM980 966h130l-171 -966h-125l30 202q-68 -102 -171.5 -162t-215.5 -60q-166 0 -271 110t-105 292
q0 86 24.5 173.5t72 164t111.5 136t148.5 94.5t177.5 35q121 0 208 -64.5t119 -171.5zM487 98q73 0 141 29t118.5 78t88 109.5t57 126t19.5 126.5q0 131 -76.5 216.5t-199.5 85.5q-74 0 -141.5 -28t-117.5 -76t-87.5 -109t-56.5 -129t-19 -134q0 -134 76 -214.5t198 -80.5z
" />
    <glyph glyph-name="uni1EA4" unicode="&#x1ea4;" horiz-adv-x="1288" 
d="M1218 2244l-269 -256h-100l303 313zM870 1778l-205 -234h-97l257 294h112l154 -294h-99zM725 1394h159l268 -1394h-142l-64 351h-648l-189 -351h-144zM364 475h559l-141 776z" />
    <glyph glyph-name="uni1EA5" unicode="&#x1ea5;" horiz-adv-x="1196" 
d="M1107 1880l-270 -256h-99l303 313zM755 1385l-205 -234h-97l257 294h112l154 -294h-99zM980 966h130l-171 -966h-125l30 202q-68 -102 -171.5 -162t-215.5 -60q-166 0 -271 110t-105 292q0 86 24.5 173.5t72 164t111.5 136t148.5 94.5t177.5 35q121 0 208 -64.5
t119 -171.5zM487 98q73 0 141 29t118.5 78t88 109.5t57 126t19.5 126.5q0 131 -76.5 216.5t-199.5 85.5q-74 0 -141.5 -28t-117.5 -76t-87.5 -109t-56.5 -129t-19 -134q0 -134 76 -214.5t198 -80.5z" />
    <glyph glyph-name="uni1EA6" unicode="&#x1ea6;" horiz-adv-x="1288" 
d="M959 1988h-100l-178 256l86 57zM870 1778l-205 -234h-97l257 294h112l154 -294h-99zM1010 0l-64 351h-648l-189 -351h-144l760 1394h159l268 -1394h-142zM364 475h559l-141 776z" />
    <glyph glyph-name="uni1EA7" unicode="&#x1ea7;" horiz-adv-x="1196" 
d="M847 1624h-100l-178 256l86 57zM755 1385l-205 -234h-97l257 294h112l154 -294h-99zM980 966h130l-171 -966h-125l30 202q-68 -102 -171.5 -162t-215.5 -60q-166 0 -271 110t-105 292q0 86 24.5 173.5t72 164t111.5 136t148.5 94.5t177.5 35q121 0 208 -64.5t119 -171.5z
M487 98q73 0 141 29t118.5 78t88 109.5t57 126t19.5 126.5q0 131 -76.5 216.5t-199.5 85.5q-74 0 -141.5 -28t-117.5 -76t-87.5 -109t-56.5 -129t-19 -134q0 -134 76 -214.5t198 -80.5z" />
    <glyph glyph-name="uni1EA8" unicode="&#x1ea8;" horiz-adv-x="1288" 
d="M954 2298q-43 0 -91 -29l-36 60q67 46 137 46q78 0 121 -47t31 -119q-20 -116 -159 -156l-13 -74h-74l21 114q124 27 140 114q6 40 -14 65.5t-63 25.5zM870 1778l-205 -234h-97l257 294h112l154 -294h-99zM1010 0l-64 351h-648l-189 -351h-144l760 1394h159l268 -1394
h-142zM364 475h559l-141 776z" />
    <glyph glyph-name="uni1EA9" unicode="&#x1ea9;" horiz-adv-x="1196" 
d="M831 1865q-47 0 -91 -29l-36 61q68 45 137 45q78 0 121 -46.5t30 -119.5q-20 -114 -157 -156l-14 -74h-75l21 114q125 27 141 115q6 39 -14.5 64.5t-62.5 25.5zM755 1385l-205 -234h-97l257 294h112l154 -294h-99zM980 966h130l-171 -966h-125l30 202
q-68 -102 -171.5 -162t-215.5 -60q-166 0 -271 110t-105 292q0 86 24.5 173.5t72 164t111.5 136t148.5 94.5t177.5 35q121 0 208 -64.5t119 -171.5zM487 98q73 0 141 29t118.5 78t88 109.5t57 126t19.5 126.5q0 131 -76.5 216.5t-199.5 85.5q-74 0 -141.5 -28t-117.5 -76
t-87.5 -109t-56.5 -129t-19 -134q0 -134 76 -214.5t198 -80.5z" />
    <glyph glyph-name="uni1EAA" unicode="&#x1eaa;" horiz-adv-x="1288" 
d="M1213 2213h79q-18 -105 -83 -172t-154 -67q-114 0 -162 108q-30 70 -99 70q-53 0 -94 -45.5t-54 -116.5h-79q19 105 85 173t154 68q110 0 160 -109q29 -68 101 -68q54 0 94 43.5t52 115.5zM992 1544l-122 234l-205 -234h-97l257 294h112l154 -294h-99zM725 1394h159
l268 -1394h-142l-64 351h-648l-189 -351h-144zM364 475h559l-141 776z" />
    <glyph glyph-name="uni1EAB" unicode="&#x1eab;" horiz-adv-x="1196" 
d="M702 1765q-43 0 -75 -38t-43 -98h-83q17 96 75.5 157t137.5 61q99 0 140 -96q24 -53 81 -53q44 0 74.5 36t41.5 98h84q-17 -94 -75 -155.5t-137 -61.5q-99 0 -145 95q-25 55 -76 55zM755 1385l-205 -234h-97l257 294h112l154 -294h-99zM942 749l38 217h130l-171 -966
h-125l30 202q-68 -102 -171.5 -162t-215.5 -60q-166 0 -271 110t-105 292q0 86 24.5 173.5t72 164t111.5 136t148.5 94.5t177.5 35q121 0 208 -64.5t119 -171.5zM487 98q73 0 141 29t118.5 78t88 109.5t57 126t19.5 126.5q0 131 -76.5 216.5t-199.5 85.5q-74 0 -141.5 -28
t-117.5 -76t-87.5 -109t-56.5 -129t-19 -134q0 -134 76 -214.5t198 -80.5z" />
    <glyph glyph-name="uni1EAC" unicode="&#x1eac;" horiz-adv-x="1288" 
d="M870 1778l-205 -234h-97l257 294h112l154 -294h-99zM1152 0h-142l-64 351h-648l-189 -351h-144l760 1394h159zM364 475h559l-141 776zM503 -312q41 0 65.5 -30t17.5 -70q-7 -42 -42 -71t-75 -29q-41 0 -66 29t-18 71q8 41 43 70.5t75 29.5z" />
    <glyph glyph-name="uni1EAD" unicode="&#x1ead;" horiz-adv-x="1196" 
d="M755 1385l-205 -234h-97l257 294h112l154 -294h-99zM980 966h130l-171 -966h-125l30 202q-68 -102 -171.5 -162t-215.5 -60q-166 0 -271 110t-105 292q0 86 24.5 173.5t72 164t111.5 136t148.5 94.5t177.5 35q121 0 208 -64.5t119 -171.5zM487 98q73 0 141 29t118.5 78
t88 109.5t57 126t19.5 126.5q0 131 -76.5 216.5t-199.5 85.5q-74 0 -141.5 -28t-117.5 -76t-87.5 -109t-56.5 -129t-19 -134q0 -134 76 -214.5t198 -80.5zM432 -312q41 0 65.5 -30t17.5 -70q-7 -42 -42 -71t-75 -29q-41 0 -66 29t-18 71q8 41 43 70.5t75 29.5z" />
    <glyph glyph-name="uni1EAE" unicode="&#x1eae;" horiz-adv-x="1288" 
d="M1213 2212l-269 -256h-100l303 313zM843 1620q112 0 186 46t91 140h87q-23 -130 -125.5 -196t-253.5 -66q-149 0 -227.5 66t-55.5 196h87q-17 -94 41.5 -140t169.5 -46zM725 1394h159l268 -1394h-142l-64 351h-648l-189 -351h-144zM364 475h559l-141 776z" />
    <glyph glyph-name="uni1EAF" unicode="&#x1eaf;" horiz-adv-x="1196" 
d="M1109 1880l-270 -256h-99l303 313zM712 1139q-143 0 -222 85t-55 221h88q-17 -100 40.5 -165t161.5 -65q106 0 187.5 65.5t97.5 164.5h87q-24 -137 -132 -221.5t-253 -84.5zM980 966h130l-171 -966h-125l30 202q-68 -102 -171.5 -162t-215.5 -60q-166 0 -271 110
t-105 292q0 86 24.5 173.5t72 164t111.5 136t148.5 94.5t177.5 35q121 0 208 -64.5t119 -171.5zM487 98q73 0 141 29t118.5 78t88 109.5t57 126t19.5 126.5q0 131 -76.5 216.5t-199.5 85.5q-74 0 -141.5 -28t-117.5 -76t-87.5 -109t-56.5 -129t-19 -134q0 -134 76 -214.5
t198 -80.5z" />
    <glyph glyph-name="uni1EB0" unicode="&#x1eb0;" horiz-adv-x="1288" 
d="M954 1956h-100l-178 256l86 57zM828 1544q-149 0 -227.5 66t-55.5 196h87q-17 -94 41.5 -140t169.5 -46q112 0 186 46t91 140h87q-23 -130 -125.5 -196t-253.5 -66zM725 1394h159l268 -1394h-142l-64 351h-648l-189 -351h-144zM364 475h559l-141 776z" />
    <glyph glyph-name="uni1EB1" unicode="&#x1eb1;" horiz-adv-x="1196" 
d="M849 1624h-100l-178 256l86 57zM712 1139q-143 0 -222 85t-55 221h88q-17 -100 40.5 -165t161.5 -65q106 0 187.5 65.5t97.5 164.5h87q-24 -137 -132 -221.5t-253 -84.5zM980 966h130l-171 -966h-125l30 202q-68 -102 -171.5 -162t-215.5 -60q-166 0 -271 110t-105 292
q0 86 24.5 173.5t72 164t111.5 136t148.5 94.5t177.5 35q121 0 208 -64.5t119 -171.5zM487 98q73 0 141 29t118.5 78t88 109.5t57 126t19.5 126.5q0 131 -76.5 216.5t-199.5 85.5q-74 0 -141.5 -28t-117.5 -76t-87.5 -109t-56.5 -129t-19 -134q0 -134 76 -214.5t198 -80.5z
" />
    <glyph glyph-name="uni1EB2" unicode="&#x1eb2;" horiz-adv-x="1288" 
d="M949 2266q-43 0 -91 -29l-36 60q67 46 137 46q78 0 121 -47t31 -119q-20 -116 -159 -156l-13 -74h-74l21 114q124 27 140 114q6 40 -14 65.5t-63 25.5zM828 1544q-149 0 -227.5 66t-55.5 196h87q-17 -94 41.5 -140t169.5 -46q112 0 186 46t91 140h87
q-23 -130 -125.5 -196t-253.5 -66zM725 1394h159l268 -1394h-142l-64 351h-648l-189 -351h-144zM364 475h559l-141 776z" />
    <glyph glyph-name="uni1EB3" unicode="&#x1eb3;" horiz-adv-x="1196" 
d="M833 1865q-47 0 -91 -29l-36 61q68 45 137 45q78 0 121 -46.5t30 -119.5q-20 -114 -157 -156l-14 -74h-75l21 114q125 27 141 115q6 39 -14.5 64.5t-62.5 25.5zM712 1139q-143 0 -222 85t-55 221h88q-17 -100 40.5 -165t161.5 -65q106 0 187.5 65.5t97.5 164.5h87
q-24 -137 -132 -221.5t-253 -84.5zM980 966h130l-171 -966h-125l30 202q-68 -102 -171.5 -162t-215.5 -60q-166 0 -271 110t-105 292q0 86 24.5 173.5t72 164t111.5 136t148.5 94.5t177.5 35q121 0 208 -64.5t119 -171.5zM487 98q73 0 141 29t118.5 78t88 109.5t57 126
t19.5 126.5q0 131 -76.5 216.5t-199.5 85.5q-74 0 -141.5 -28t-117.5 -76t-87.5 -109t-56.5 -129t-19 -134q0 -134 76 -214.5t198 -80.5z" />
    <glyph glyph-name="uni1EB4" unicode="&#x1eb4;" horiz-adv-x="1288" 
d="M789 2120q-53 0 -94 -45.5t-54 -116.5h-79q19 105 85 173t154 68q110 0 160 -109q29 -68 101 -68q54 0 94 43.5t52 115.5h79q-18 -105 -83 -172t-154 -67q-114 0 -162 108q-30 70 -99 70zM843 1620q112 0 186 46t91 140h87q-23 -130 -125.5 -196t-253.5 -66
q-149 0 -227.5 66t-55.5 196h87q-17 -94 41.5 -140t169.5 -46zM725 1394h159l268 -1394h-142l-64 351h-648l-189 -351h-144zM364 475h559l-141 776z" />
    <glyph glyph-name="uni1EB5" unicode="&#x1eb5;" horiz-adv-x="1196" 
d="M704 1765q-43 0 -75 -38t-43 -98h-83q17 96 75.5 157t137.5 61q99 0 140 -96q24 -53 81 -53q44 0 74.5 36t41.5 98h84q-17 -94 -75 -155.5t-137 -61.5q-99 0 -145 95q-25 55 -76 55zM712 1139q-143 0 -222 85t-55 221h88q-17 -100 40.5 -165t161.5 -65q106 0 187.5 65.5
t97.5 164.5h87q-24 -137 -132 -221.5t-253 -84.5zM942 749l38 217h130l-171 -966h-125l30 202q-68 -102 -171.5 -162t-215.5 -60q-166 0 -271 110t-105 292q0 86 24.5 173.5t72 164t111.5 136t148.5 94.5t177.5 35q121 0 208 -64.5t119 -171.5zM487 98q73 0 141 29t118.5 78
t88 109.5t57 126t19.5 126.5q0 131 -76.5 216.5t-199.5 85.5q-74 0 -141.5 -28t-117.5 -76t-87.5 -109t-56.5 -129t-19 -134q0 -134 76 -214.5t198 -80.5z" />
    <glyph glyph-name="uni1EB6" unicode="&#x1eb6;" horiz-adv-x="1288" 
d="M828 1544q-149 0 -227.5 66t-55.5 196h87q-17 -94 41.5 -140t169.5 -46q112 0 186 46t91 140h87q-23 -130 -125.5 -196t-253.5 -66zM725 1394h159l268 -1394h-142l-64 351h-648l-189 -351h-144zM364 475h559l-141 776zM503 -312q41 0 65.5 -30t17.5 -70q-7 -42 -42 -71
t-75 -29q-41 0 -66 29t-18 71q8 41 43 70.5t75 29.5z" />
    <glyph glyph-name="uni1EB7" unicode="&#x1eb7;" horiz-adv-x="1196" 
d="M712 1139q-143 0 -222 85t-55 221h88q-17 -100 40.5 -165t161.5 -65q106 0 187.5 65.5t97.5 164.5h87q-24 -137 -132 -221.5t-253 -84.5zM980 966h130l-171 -966h-125l30 202q-68 -102 -171.5 -162t-215.5 -60q-166 0 -271 110t-105 292q0 86 24.5 173.5t72 164
t111.5 136t148.5 94.5t177.5 35q121 0 208 -64.5t119 -171.5zM487 98q73 0 141 29t118.5 78t88 109.5t57 126t19.5 126.5q0 131 -76.5 216.5t-199.5 85.5q-74 0 -141.5 -28t-117.5 -76t-87.5 -109t-56.5 -129t-19 -134q0 -134 76 -214.5t198 -80.5zM432 -312q41 0 65.5 -30
t17.5 -70q-7 -42 -42 -71t-75 -29q-41 0 -66 29t-18 71q8 41 43 70.5t75 29.5z" />
    <glyph glyph-name="uni1EB8" unicode="&#x1eb8;" horiz-adv-x="1040" 
d="M1077 1269h-585l-90 -511h513l-22 -124h-513l-90 -508h585l-22 -126h-725l245 1394h726zM437 -312q41 0 65.5 -30t17.5 -70q-7 -42 -42 -71t-75 -29q-41 0 -66 29t-18 71q8 41 43 70.5t75 29.5z" />
    <glyph glyph-name="uni1EB9" unicode="&#x1eb9;" horiz-adv-x="1079" 
d="M634 985q172 0 271.5 -94.5t99.5 -270.5q0 -61 -11 -120l-9 -35h-773q-7 -43 -7 -93q0 -135 76.5 -206t197.5 -71q97 0 186.5 52.5t149.5 141.5l113 -37q-76 -127 -195.5 -199t-253.5 -72q-180 0 -288 104.5t-108 288.5q0 93 24 182t71.5 166.5t113 136t154 92.5
t188.5 34zM633 880q-146 0 -248 -88t-148 -226h637q5 30 5 67q0 123 -65.5 185t-180.5 62zM423 -312q41 0 65.5 -30t17.5 -70q-7 -42 -42 -71t-75 -29q-41 0 -66 29t-18 71q8 41 43 70.5t75 29.5z" />
    <glyph glyph-name="uni1EBA" unicode="&#x1eba;" horiz-adv-x="1040" 
d="M810 1854q-43 0 -91 -29l-36 60q67 46 137 46q78 0 121 -47t31 -119q-20 -116 -159 -156l-13 -74h-74l21 114q124 27 140 114q6 40 -14 65.5t-63 25.5zM1077 1269h-585l-90 -511h513l-22 -124h-513l-90 -508h585l-22 -126h-725l245 1394h726z" />
    <glyph glyph-name="uni1EBB" unicode="&#x1ebb;" horiz-adv-x="1079" 
d="M711 1390q-47 0 -91 -29l-36 61q68 45 137 45q78 0 121 -46.5t30 -119.5q-20 -114 -157 -156l-14 -74h-75l21 114q125 27 141 115q6 39 -14.5 64.5t-62.5 25.5zM634 985q172 0 271.5 -94.5t99.5 -270.5q0 -61 -11 -120l-9 -35h-773q-7 -43 -7 -93q0 -135 76.5 -206
t197.5 -71q97 0 186.5 52.5t149.5 141.5l113 -37q-76 -127 -195.5 -199t-253.5 -72q-180 0 -288 104.5t-108 288.5q0 93 24 182t71.5 166.5t113 136t154 92.5t188.5 34zM633 880q-146 0 -248 -88t-148 -226h637q5 30 5 67q0 123 -65.5 185t-180.5 62z" />
    <glyph glyph-name="uni1EBC" unicode="&#x1ebc;" horiz-adv-x="1040" 
d="M650 1708q-53 0 -94 -45.5t-54 -116.5h-79q19 105 85 173t154 68q110 0 160 -109q29 -68 101 -68q54 0 94 43.5t52 115.5h79q-18 -105 -83 -172t-154 -67q-114 0 -162 108q-30 70 -99 70zM128 0l245 1394h726l-22 -125h-585l-90 -511h513l-22 -124h-513l-90 -508h585
l-22 -126h-725z" />
    <glyph glyph-name="uni1EBD" unicode="&#x1ebd;" horiz-adv-x="1079" 
d="M582 1290q-43 0 -75 -38t-43 -98h-83q17 96 75.5 157t137.5 61q99 0 140 -96q24 -53 81 -53q44 0 74.5 36t41.5 98h84q-17 -94 -75 -155.5t-137 -61.5q-99 0 -145 95q-25 55 -76 55zM634 985q172 0 271.5 -94.5t99.5 -270.5q0 -61 -11 -120l-9 -35h-773q-7 -43 -7 -93
q0 -135 76.5 -206t197.5 -71q97 0 186.5 52.5t149.5 141.5l113 -37q-76 -127 -195.5 -199t-253.5 -72q-180 0 -288 104.5t-108 288.5q0 93 24 182t71.5 166.5t113 136t154 92.5t188.5 34zM633 880q-146 0 -248 -88t-148 -226h637q5 30 5 67q0 123 -65.5 185t-180.5 62z" />
    <glyph glyph-name="uni1EBE" unicode="&#x1ebe;" horiz-adv-x="1040" 
d="M1152 2244l-269 -256h-100l303 313zM804 1778l-205 -234h-97l257 294h112l154 -294h-99zM128 0l245 1394h726l-22 -125h-585l-90 -511h513l-22 -124h-513l-90 -508h585l-22 -126h-725z" />
    <glyph glyph-name="uni1EBF" unicode="&#x1ebf;" horiz-adv-x="1079" 
d="M1069 1882l-270 -256h-99l303 313zM717 1387l-205 -234h-97l257 294h112l154 -294h-99zM634 985q172 0 271.5 -94.5t99.5 -270.5q0 -61 -11 -120l-9 -35h-773q-7 -43 -7 -93q0 -135 76.5 -206t197.5 -71q97 0 186.5 52.5t149.5 141.5l113 -37q-76 -127 -195.5 -199
t-253.5 -72q-180 0 -288 104.5t-108 288.5q0 93 24 182t71.5 166.5t113 136t154 92.5t188.5 34zM633 880q-146 0 -248 -88t-148 -226h637q5 30 5 67q0 123 -65.5 185t-180.5 62z" />
    <glyph glyph-name="uni1EC0" unicode="&#x1ec0;" horiz-adv-x="1040" 
d="M893 1988h-100l-178 256l86 57zM804 1778l-205 -234h-97l257 294h112l154 -294h-99zM1077 1269h-585l-90 -511h513l-22 -124h-513l-90 -508h585l-22 -126h-725l245 1394h726z" />
    <glyph glyph-name="uni1EC1" unicode="&#x1ec1;" horiz-adv-x="1079" 
d="M809 1626h-100l-178 256l86 57zM717 1387l-205 -234h-97l257 294h112l154 -294h-99zM634 985q172 0 271.5 -94.5t99.5 -270.5q0 -61 -11 -120l-9 -35h-773q-7 -43 -7 -93q0 -135 76.5 -206t197.5 -71q97 0 186.5 52.5t149.5 141.5l113 -37q-76 -127 -195.5 -199
t-253.5 -72q-180 0 -288 104.5t-108 288.5q0 93 24 182t71.5 166.5t113 136t154 92.5t188.5 34zM633 880q-146 0 -248 -88t-148 -226h637q5 30 5 67q0 123 -65.5 185t-180.5 62z" />
    <glyph glyph-name="uni1EC2" unicode="&#x1ec2;" horiz-adv-x="1040" 
d="M888 2298q-43 0 -91 -29l-36 60q67 46 137 46q78 0 121 -47t31 -119q-20 -116 -159 -156l-13 -74h-74l21 114q124 27 140 114q6 40 -14 65.5t-63 25.5zM804 1778l-205 -234h-97l257 294h112l154 -294h-99zM1077 1269h-585l-90 -511h513l-22 -124h-513l-90 -508h585
l-22 -126h-725l245 1394h726z" />
    <glyph glyph-name="uni1EC3" unicode="&#x1ec3;" horiz-adv-x="1079" 
d="M793 1867q-47 0 -91 -29l-36 61q68 45 137 45q78 0 121 -46.5t30 -119.5q-20 -114 -157 -156l-14 -74h-75l21 114q125 27 141 115q6 39 -14.5 64.5t-62.5 25.5zM717 1387l-205 -234h-97l257 294h112l154 -294h-99zM634 985q172 0 271.5 -94.5t99.5 -270.5q0 -61 -11 -120
l-9 -35h-773q-7 -43 -7 -93q0 -135 76.5 -206t197.5 -71q97 0 186.5 52.5t149.5 141.5l113 -37q-76 -127 -195.5 -199t-253.5 -72q-180 0 -288 104.5t-108 288.5q0 93 24 182t71.5 166.5t113 136t154 92.5t188.5 34zM633 880q-146 0 -248 -88t-148 -226h637q5 30 5 67
q0 123 -65.5 185t-180.5 62z" />
    <glyph glyph-name="uni1EC4" unicode="&#x1ec4;" horiz-adv-x="1040" 
d="M1147 2213h79q-18 -105 -83 -172t-154 -67q-114 0 -162 108q-30 70 -99 70q-53 0 -94 -45.5t-54 -116.5h-79q19 105 85 173t154 68q110 0 160 -109q29 -68 101 -68q54 0 94 43.5t52 115.5zM926 1544l-122 234l-205 -234h-97l257 294h112l154 -294h-99zM128 0l245 1394
h726l-22 -125h-585l-90 -511h513l-22 -124h-513l-90 -508h585l-22 -126h-725z" />
    <glyph glyph-name="uni1EC5" unicode="&#x1ec5;" horiz-adv-x="1079" 
d="M1013 1834h84q-17 -94 -75 -155.5t-137 -61.5q-99 0 -145 95q-25 55 -76 55q-43 0 -75 -38t-43 -98h-83q17 96 75.5 157t137.5 61q99 0 140 -96q24 -53 81 -53q44 0 74.5 36t41.5 98zM839 1153l-122 234l-205 -234h-97l257 294h112l154 -294h-99zM634 985
q172 0 271.5 -94.5t99.5 -270.5q0 -61 -11 -120l-9 -35h-773q-7 -43 -7 -93q0 -135 76.5 -206t197.5 -71q97 0 186.5 52.5t149.5 141.5l113 -37q-76 -127 -195.5 -199t-253.5 -72q-180 0 -288 104.5t-108 288.5q0 93 24 182t71.5 166.5t113 136t154 92.5t188.5 34zM633 880
q-146 0 -248 -88t-148 -226h637q5 30 5 67q0 123 -65.5 185t-180.5 62z" />
    <glyph glyph-name="uni1EC6" unicode="&#x1ec6;" horiz-adv-x="1040" 
d="M804 1778l-205 -234h-97l257 294h112l154 -294h-99zM1077 1269h-585l-90 -511h513l-22 -124h-513l-90 -508h585l-22 -126h-725l245 1394h726zM437 -312q41 0 65.5 -30t17.5 -70q-7 -42 -42 -71t-75 -29q-41 0 -66 29t-18 71q8 41 43 70.5t75 29.5z" />
    <glyph glyph-name="uni1EC7" unicode="&#x1ec7;" horiz-adv-x="1079" 
d="M717 1387l-205 -234h-97l257 294h112l154 -294h-99zM634 985q172 0 271.5 -94.5t99.5 -270.5q0 -61 -11 -120l-9 -35h-773q-7 -43 -7 -93q0 -135 76.5 -206t197.5 -71q97 0 186.5 52.5t149.5 141.5l113 -37q-76 -127 -195.5 -199t-253.5 -72q-180 0 -288 104.5
t-108 288.5q0 93 24 182t71.5 166.5t113 136t154 92.5t188.5 34zM633 880q-146 0 -248 -88t-148 -226h637q5 30 5 67q0 123 -65.5 185t-180.5 62zM423 -312q41 0 65.5 -30t17.5 -70q-7 -42 -42 -71t-75 -29q-41 0 -66 29t-18 71q8 41 43 70.5t75 29.5z" />
    <glyph glyph-name="uni1EC8" unicode="&#x1ec8;" horiz-adv-x="561" 
d="M429 1535l21 114q124 27 140 114q6 40 -14 65.5t-63 25.5t-91 -29l-36 60q67 46 137 46q78 0 121 -47t31 -119q-20 -116 -159 -156l-13 -74h-74zM128 0l245 1394h135l-245 -1394h-135z" />
    <glyph glyph-name="uni1EC9" unicode="&#x1ec9;" horiz-adv-x="474" 
d="M305 1069l21 114q125 27 141 115q6 39 -14.5 64.5t-62.5 25.5q-47 0 -91 -29l-36 61q68 45 137 45q78 0 121 -46.5t30 -119.5q-20 -114 -157 -156l-14 -74h-75zM84 0l171 968h135l-171 -968h-135z" />
    <glyph glyph-name="uni1ECA" unicode="&#x1eca;" horiz-adv-x="561" 
d="M128 0l245 1394h135l-245 -1394h-135zM106 -512q-41 0 -66 29t-18 71q8 41 43 70.5t75 29.5q41 0 65.5 -30t17.5 -70q-7 -42 -42 -71t-75 -29z" />
    <glyph glyph-name="uni1ECB" unicode="&#x1ecb;" horiz-adv-x="474" 
d="M383 1265q-41 0 -67 29.5t-22 70.5q4 42 36.5 71t74.5 29q41 0 68 -29.5t21 -70.5q-5 -41 -38 -70.5t-73 -29.5zM84 0l171 968h135l-171 -968h-135zM64 -512q-41 0 -66 29t-18 71q8 41 43 70.5t75 29.5q41 0 65.5 -30t17.5 -70q-7 -42 -42 -71t-75 -29z" />
    <glyph glyph-name="uni1ECC" unicode="&#x1ecc;" horiz-adv-x="1604" 
d="M725 -19q-262 0 -423 152t-161 416q0 133 36.5 260t108.5 236t169.5 191.5t227.5 129.5t275 47q259 0 420.5 -152t161.5 -414q0 -111 -26.5 -218.5t-75 -203.5t-121 -177.5t-161.5 -140.5t-199.5 -92.5t-231.5 -33.5zM730 112q120 0 227.5 40t188 110t139.5 161.5t89 198
t30 217.5q0 209 -124.5 325t-326.5 116q-151 0 -280 -61.5t-215 -163t-134 -232t-48 -268.5q0 -211 125 -327t329 -116zM630 -512q-41 0 -66 29t-18 71q8 41 43 70.5t75 29.5q41 0 65.5 -30t17.5 -70q-7 -42 -42 -71t-75 -29z" />
    <glyph glyph-name="uni1ECD" unicode="&#x1ecd;" horiz-adv-x="1121" 
d="M481 -19q-178 0 -289 108.5t-111 291.5q0 90 25 178t73.5 164.5t115 135t155.5 92.5t189 34q180 0 290.5 -108.5t110.5 -291.5q0 -113 -40 -221t-111 -193t-177.5 -137.5t-230.5 -52.5zM484 95q93 0 174.5 43t135.5 112.5t85 155.5t31 173q0 134 -76 213.5t-199 79.5
q-94 0 -175.5 -43.5t-134.5 -113.5t-83 -156t-30 -173q0 -134 74.5 -212.5t197.5 -78.5zM386 -512q-41 0 -66 29t-18 71q8 41 43 70.5t75 29.5q41 0 65.5 -30t17.5 -70q-7 -42 -42 -71t-75 -29z" />
    <glyph glyph-name="uni1ECE" unicode="&#x1ece;" horiz-adv-x="1604" 
d="M952 1535l21 114q124 27 140 114q6 40 -14 65.5t-63 25.5t-91 -29l-36 60q67 46 137 46q78 0 121 -47t31 -119q-20 -116 -159 -156l-13 -74h-74zM725 -19q-262 0 -423 152t-161 416q0 133 36.5 260t108.5 236t169.5 191.5t227.5 129.5t275 47q259 0 420.5 -152
t161.5 -414q0 -111 -26.5 -218.5t-75 -203.5t-121 -177.5t-161.5 -140.5t-199.5 -92.5t-231.5 -33.5zM730 112q120 0 227.5 40t188 110t139.5 161.5t89 198t30 217.5q0 209 -124.5 325t-326.5 116q-151 0 -280 -61.5t-215 -163t-134 -232t-48 -268.5q0 -211 125 -327
t329 -116z" />
    <glyph glyph-name="uni1ECF" unicode="&#x1ecf;" horiz-adv-x="1121" 
d="M626 1067l21 114q125 27 141 115q6 39 -14.5 64.5t-62.5 25.5q-47 0 -91 -29l-36 61q68 45 137 45q78 0 121 -46.5t30 -119.5q-20 -114 -157 -156l-14 -74h-75zM481 -19q-178 0 -289 108.5t-111 291.5q0 90 25 178t73.5 164.5t115 135t155.5 92.5t189 34
q180 0 290.5 -108.5t110.5 -291.5q0 -113 -40 -221t-111 -193t-177.5 -137.5t-230.5 -52.5zM484 95q93 0 174.5 43t135.5 112.5t85 155.5t31 173q0 134 -76 213.5t-199 79.5q-94 0 -175.5 -43.5t-134.5 -113.5t-83 -156t-30 -173q0 -134 74.5 -212.5t197.5 -78.5z" />
    <glyph glyph-name="uni1ED0" unicode="&#x1ed0;" horiz-adv-x="1604" 
d="M1009 1988l303 313l66 -57l-269 -256h-100zM825 1544h-97l257 294h112l154 -294h-99l-122 234zM725 -19q-262 0 -423 152t-161 416q0 133 36.5 260t108.5 236t169.5 191.5t227.5 129.5t275 47q259 0 420.5 -152t161.5 -414q0 -111 -26.5 -218.5t-75 -203.5t-121 -177.5
t-161.5 -140.5t-199.5 -92.5t-231.5 -33.5zM730 112q120 0 227.5 40t188 110t139.5 161.5t89 198t30 217.5q0 209 -124.5 325t-326.5 116q-151 0 -280 -61.5t-215 -163t-134 -232t-48 -268.5q0 -211 125 -327t329 -116z" />
    <glyph glyph-name="uni1ED1" unicode="&#x1ed1;" horiz-adv-x="1121" 
d="M700 1622l303 313l66 -57l-270 -256h-99zM512 1149h-97l257 294h112l154 -294h-99l-122 234zM481 -19q-178 0 -289 108.5t-111 291.5q0 90 25 178t73.5 164.5t115 135t155.5 92.5t189 34q180 0 290.5 -108.5t110.5 -291.5q0 -113 -40 -221t-111 -193t-177.5 -137.5
t-230.5 -52.5zM484 95q93 0 174.5 43t135.5 112.5t85 155.5t31 173q0 134 -76 213.5t-199 79.5q-94 0 -175.5 -43.5t-134.5 -113.5t-83 -156t-30 -173q0 -134 74.5 -212.5t197.5 -78.5z" />
    <glyph glyph-name="uni1ED2" unicode="&#x1ed2;" horiz-adv-x="1604" 
d="M1019 1988l-178 256l86 57l192 -313h-100zM825 1544h-97l257 294h112l154 -294h-99l-122 234zM725 -19q-262 0 -423 152t-161 416q0 133 36.5 260t108.5 236t169.5 191.5t227.5 129.5t275 47q259 0 420.5 -152t161.5 -414q0 -111 -26.5 -218.5t-75 -203.5t-121 -177.5
t-161.5 -140.5t-199.5 -92.5t-231.5 -33.5zM730 112q120 0 227.5 40t188 110t139.5 161.5t89 198t30 217.5q0 209 -124.5 325t-326.5 116q-151 0 -280 -61.5t-215 -163t-134 -232t-48 -268.5q0 -211 125 -327t329 -116z" />
    <glyph glyph-name="uni1ED3" unicode="&#x1ed3;" horiz-adv-x="1121" 
d="M709 1622l-178 256l86 57l192 -313h-100zM512 1149h-97l257 294h112l154 -294h-99l-122 234zM481 -19q-178 0 -289 108.5t-111 291.5q0 90 25 178t73.5 164.5t115 135t155.5 92.5t189 34q180 0 290.5 -108.5t110.5 -291.5q0 -113 -40 -221t-111 -193t-177.5 -137.5
t-230.5 -52.5zM484 95q93 0 174.5 43t135.5 112.5t85 155.5t31 173q0 134 -76 213.5t-199 79.5q-94 0 -175.5 -43.5t-134.5 -113.5t-83 -156t-30 -173q0 -134 74.5 -212.5t197.5 -78.5z" />
    <glyph glyph-name="uni1ED4" unicode="&#x1ed4;" horiz-adv-x="1604" 
d="M1030 1979l21 114q124 27 140 114q6 40 -14 65.5t-63 25.5t-91 -29l-36 60q67 46 137 46q78 0 121 -47t31 -119q-20 -116 -159 -156l-13 -74h-74zM825 1544h-97l257 294h112l154 -294h-99l-122 234zM725 -19q-262 0 -423 152t-161 416q0 133 36.5 260t108.5 236
t169.5 191.5t227.5 129.5t275 47q259 0 420.5 -152t161.5 -414q0 -111 -26.5 -218.5t-75 -203.5t-121 -177.5t-161.5 -140.5t-199.5 -92.5t-231.5 -33.5zM730 112q120 0 227.5 40t188 110t139.5 161.5t89 198t30 217.5q0 209 -124.5 325t-326.5 116q-151 0 -280 -61.5
t-215 -163t-134 -232t-48 -268.5q0 -211 125 -327t329 -116z" />
    <glyph glyph-name="uni1ED5" unicode="&#x1ed5;" horiz-adv-x="1121" 
d="M708 1544l21 114q125 27 141 115q6 39 -14.5 64.5t-62.5 25.5q-47 0 -91 -29l-36 61q68 45 137 45q78 0 121 -46.5t30 -119.5q-20 -114 -157 -156l-14 -74h-75zM512 1149h-97l257 294h112l154 -294h-99l-122 234zM481 -19q-178 0 -289 108.5t-111 291.5q0 90 25 178
t73.5 164.5t115 135t155.5 92.5t189 34q180 0 290.5 -108.5t110.5 -291.5q0 -113 -40 -221t-111 -193t-177.5 -137.5t-230.5 -52.5zM484 95q93 0 174.5 43t135.5 112.5t85 155.5t31 173q0 134 -76 213.5t-199 79.5q-94 0 -175.5 -43.5t-134.5 -113.5t-83 -156t-30 -173
q0 -134 74.5 -212.5t197.5 -78.5z" />
    <glyph glyph-name="uni1ED6" unicode="&#x1ed6;" horiz-adv-x="1604" 
d="M1215 1974q-114 0 -162 108q-30 70 -99 70q-53 0 -94 -45.5t-54 -116.5h-79q19 105 85 173t154 68q110 0 160 -109q29 -68 101 -68q54 0 94 43.5t52 115.5h79q-18 -105 -83 -172t-154 -67zM825 1544h-97l257 294h112l154 -294h-99l-122 234zM725 -19q-262 0 -423 152
t-161 416q0 133 36.5 260t108.5 236t169.5 191.5t227.5 129.5t275 47q259 0 420.5 -152t161.5 -414q0 -111 -26.5 -218.5t-75 -203.5t-121 -177.5t-161.5 -140.5t-199.5 -92.5t-231.5 -33.5zM730 112q120 0 227.5 40t188 110t139.5 161.5t89 198t30 217.5q0 209 -124.5 325
t-326.5 116q-151 0 -280 -61.5t-215 -163t-134 -232t-48 -268.5q0 -211 125 -327t329 -116z" />
    <glyph glyph-name="uni1ED7" unicode="&#x1ed7;" horiz-adv-x="1121" 
d="M885 1613q-99 0 -145 95q-25 55 -76 55q-43 0 -75 -38t-43 -98h-83q17 96 75.5 157t137.5 61q99 0 140 -96q24 -53 81 -53q44 0 74.5 36t41.5 98h84q-17 -94 -75 -155.5t-137 -61.5zM512 1149h-97l257 294h112l154 -294h-99l-122 234zM481 -19q-178 0 -289 108.5
t-111 291.5q0 90 25 178t73.5 164.5t115 135t155.5 92.5t189 34q180 0 290.5 -108.5t110.5 -291.5q0 -113 -40 -221t-111 -193t-177.5 -137.5t-230.5 -52.5zM484 95q93 0 174.5 43t135.5 112.5t85 155.5t31 173q0 134 -76 213.5t-199 79.5q-94 0 -175.5 -43.5t-134.5 -113.5
t-83 -156t-30 -173q0 -134 74.5 -212.5t197.5 -78.5z" />
    <glyph glyph-name="uni1ED8" unicode="&#x1ed8;" horiz-adv-x="1604" 
d="M825 1544h-97l257 294h112l154 -294h-99l-122 234zM725 -19q-262 0 -423 152t-161 416q0 133 36.5 260t108.5 236t169.5 191.5t227.5 129.5t275 47q259 0 420.5 -152t161.5 -414q0 -111 -26.5 -218.5t-75 -203.5t-121 -177.5t-161.5 -140.5t-199.5 -92.5t-231.5 -33.5z
M730 112q120 0 227.5 40t188 110t139.5 161.5t89 198t30 217.5q0 209 -124.5 325t-326.5 116q-151 0 -280 -61.5t-215 -163t-134 -232t-48 -268.5q0 -211 125 -327t329 -116zM630 -512q-41 0 -66 29t-18 71q8 41 43 70.5t75 29.5q41 0 65.5 -30t17.5 -70q-7 -42 -42 -71
t-75 -29z" />
    <glyph glyph-name="uni1ED9" unicode="&#x1ed9;" horiz-adv-x="1121" 
d="M512 1149h-97l257 294h112l154 -294h-99l-122 234zM481 -19q-178 0 -289 108.5t-111 291.5q0 90 25 178t73.5 164.5t115 135t155.5 92.5t189 34q180 0 290.5 -108.5t110.5 -291.5q0 -113 -40 -221t-111 -193t-177.5 -137.5t-230.5 -52.5zM484 95q93 0 174.5 43
t135.5 112.5t85 155.5t31 173q0 134 -76 213.5t-199 79.5q-94 0 -175.5 -43.5t-134.5 -113.5t-83 -156t-30 -173q0 -134 74.5 -212.5t197.5 -78.5zM386 -512q-41 0 -66 29t-18 71q8 41 43 70.5t75 29.5q41 0 65.5 -30t17.5 -70q-7 -42 -42 -71t-75 -29z" />
    <glyph glyph-name="uni1EDA" unicode="&#x1eda;" horiz-adv-x="1604" 
d="M1300 1800l-269 -256h-100l303 313zM1635 1457h99l-16 -89q-21 -123 -75 -179t-129 -56q-22 0 -41 4q67 -126 67 -290q0 -111 -26.5 -218.5t-75 -203.5t-121 -177.5t-161.5 -140.5t-199.5 -92.5t-231.5 -33.5q-262 0 -423 152t-161 416q0 133 36.5 260t108.5 236
t169.5 191.5t227.5 129.5t275 47q140 0 255 -46.5t193 -133.5q45 -26 94 -26q92 0 119 155zM730 112q120 0 227.5 40t188 110t139.5 161.5t89 198t30 217.5q0 209 -124.5 325t-326.5 116q-151 0 -280 -61.5t-215 -163t-134 -232t-48 -268.5q0 -211 125 -327t329 -116z" />
    <glyph glyph-name="uni1EDB" unicode="&#x1edb;" horiz-adv-x="1121" 
d="M987 1401l-270 -256h-99l303 313zM1158 1094h99l-16 -89q-21 -123 -75 -179t-129 -56q-17 0 -35 3q38 -82 38 -188q0 -113 -40 -221t-111 -193t-177.5 -137.5t-230.5 -52.5q-178 0 -289 108.5t-111 291.5q0 90 25 178t73.5 164.5t115 135t155.5 92.5t189 34
q193 0 304 -122q39 -19 80 -19q92 0 119 155zM484 95q93 0 174.5 43t135.5 112.5t85 155.5t31 173q0 134 -76 213.5t-199 79.5q-94 0 -175.5 -43.5t-134.5 -113.5t-83 -156t-30 -173q0 -134 74.5 -212.5t197.5 -78.5z" />
    <glyph glyph-name="uni1EDC" unicode="&#x1edc;" horiz-adv-x="1604" 
d="M1041 1544h-100l-178 256l86 57zM1635 1457h99l-16 -89q-21 -123 -75 -179t-129 -56q-22 0 -41 4q67 -126 67 -290q0 -111 -26.5 -218.5t-75 -203.5t-121 -177.5t-161.5 -140.5t-199.5 -92.5t-231.5 -33.5q-262 0 -423 152t-161 416q0 133 36.5 260t108.5 236
t169.5 191.5t227.5 129.5t275 47q140 0 255 -46.5t193 -133.5q45 -26 94 -26q92 0 119 155zM730 112q120 0 227.5 40t188 110t139.5 161.5t89 198t30 217.5q0 209 -124.5 325t-326.5 116q-151 0 -280 -61.5t-215 -163t-134 -232t-48 -268.5q0 -211 125 -327t329 -116z" />
    <glyph glyph-name="uni1EDD" unicode="&#x1edd;" horiz-adv-x="1121" 
d="M727 1145h-100l-178 256l86 57zM1158 1094h99l-16 -89q-21 -123 -75 -179t-129 -56q-17 0 -35 3q38 -82 38 -188q0 -113 -40 -221t-111 -193t-177.5 -137.5t-230.5 -52.5q-178 0 -289 108.5t-111 291.5q0 90 25 178t73.5 164.5t115 135t155.5 92.5t189 34q193 0 304 -122
q39 -19 80 -19q92 0 119 155zM484 95q93 0 174.5 43t135.5 112.5t85 155.5t31 173q0 134 -76 213.5t-199 79.5q-94 0 -175.5 -43.5t-134.5 -113.5t-83 -156t-30 -173q0 -134 74.5 -212.5t197.5 -78.5z" />
    <glyph glyph-name="uni1EDE" unicode="&#x1ede;" horiz-adv-x="1604" 
d="M1036 1854q-43 0 -91 -29l-36 60q67 46 137 46q78 0 121 -47t31 -119q-20 -116 -159 -156l-13 -74h-74l21 114q124 27 140 114q6 40 -14 65.5t-63 25.5zM1635 1457h99l-16 -89q-21 -123 -75 -179t-129 -56q-22 0 -41 4q67 -126 67 -290q0 -111 -26.5 -218.5t-75 -203.5
t-121 -177.5t-161.5 -140.5t-199.5 -92.5t-231.5 -33.5q-262 0 -423 152t-161 416q0 133 36.5 260t108.5 236t169.5 191.5t227.5 129.5t275 47q140 0 255 -46.5t193 -133.5q45 -26 94 -26q92 0 119 155zM730 112q120 0 227.5 40t188 110t139.5 161.5t89 198t30 217.5
q0 209 -124.5 325t-326.5 116q-151 0 -280 -61.5t-215 -163t-134 -232t-48 -268.5q0 -211 125 -327t329 -116z" />
    <glyph glyph-name="uni1EDF" unicode="&#x1edf;" horiz-adv-x="1121" 
d="M711 1386q-47 0 -91 -29l-36 61q68 45 137 45q78 0 121 -46.5t30 -119.5q-20 -114 -157 -156l-14 -74h-75l21 114q125 27 141 115q6 39 -14.5 64.5t-62.5 25.5zM1158 1094h99l-16 -89q-21 -123 -75 -179t-129 -56q-17 0 -35 3q38 -82 38 -188q0 -113 -40 -221t-111 -193
t-177.5 -137.5t-230.5 -52.5q-178 0 -289 108.5t-111 291.5q0 90 25 178t73.5 164.5t115 135t155.5 92.5t189 34q193 0 304 -122q39 -19 80 -19q92 0 119 155zM484 95q93 0 174.5 43t135.5 112.5t85 155.5t31 173q0 134 -76 213.5t-199 79.5q-94 0 -175.5 -43.5
t-134.5 -113.5t-83 -156t-30 -173q0 -134 74.5 -212.5t197.5 -78.5z" />
    <glyph glyph-name="uni1EE0" unicode="&#x1ee0;" horiz-adv-x="1604" 
d="M876 1708q-53 0 -94 -45.5t-54 -116.5h-79q19 105 85 173t154 68q110 0 160 -109q29 -68 101 -68q54 0 94 43.5t52 115.5h79q-18 -105 -83 -172t-154 -67q-114 0 -162 108q-30 70 -99 70zM1635 1457h99l-16 -89q-21 -123 -75 -179t-129 -56q-22 0 -41 4q67 -126 67 -290
q0 -111 -26.5 -218.5t-75 -203.5t-121 -177.5t-161.5 -140.5t-199.5 -92.5t-231.5 -33.5q-262 0 -423 152t-161 416q0 133 36.5 260t108.5 236t169.5 191.5t227.5 129.5t275 47q140 0 255 -46.5t193 -133.5q45 -26 94 -26q92 0 119 155zM730 112q120 0 227.5 40t188 110
t139.5 161.5t89 198t30 217.5q0 209 -124.5 325t-326.5 116q-151 0 -280 -61.5t-215 -163t-134 -232t-48 -268.5q0 -211 125 -327t329 -116z" />
    <glyph glyph-name="uni1EE1" unicode="&#x1ee1;" horiz-adv-x="1121" 
d="M582 1286q-43 0 -75 -38t-43 -98h-83q17 96 75.5 157t137.5 61q99 0 140 -96q24 -53 81 -53q44 0 74.5 36t41.5 98h84q-17 -94 -75 -155.5t-137 -61.5q-99 0 -145 95q-25 55 -76 55zM1158 1094h99l-16 -89q-21 -123 -75 -179t-129 -56q-17 0 -35 3q38 -82 38 -188
q0 -113 -40 -221t-111 -193t-177.5 -137.5t-230.5 -52.5q-178 0 -289 108.5t-111 291.5q0 90 25 178t73.5 164.5t115 135t155.5 92.5t189 34q193 0 304 -122q39 -19 80 -19q92 0 119 155zM484 95q93 0 174.5 43t135.5 112.5t85 155.5t31 173q0 134 -76 213.5t-199 79.5
q-94 0 -175.5 -43.5t-134.5 -113.5t-83 -156t-30 -173q0 -134 74.5 -212.5t197.5 -78.5z" />
    <glyph glyph-name="uni1EE2" unicode="&#x1ee2;" horiz-adv-x="1604" 
d="M1635 1457h99l-16 -89q-21 -123 -75 -179t-129 -56q-22 0 -41 4q67 -126 67 -290q0 -111 -26.5 -218.5t-75 -203.5t-121 -177.5t-161.5 -140.5t-199.5 -92.5t-231.5 -33.5q-262 0 -423 152t-161 416q0 133 36.5 260t108.5 236t169.5 191.5t227.5 129.5t275 47
q140 0 255 -46.5t193 -133.5q45 -26 94 -26q92 0 119 155zM730 112q120 0 227.5 40t188 110t139.5 161.5t89 198t30 217.5q0 209 -124.5 325t-326.5 116q-151 0 -280 -61.5t-215 -163t-134 -232t-48 -268.5q0 -211 125 -327t329 -116zM664 -312q41 0 65.5 -30t17.5 -70
q-7 -42 -42 -71t-75 -29q-41 0 -66 29t-18 71q8 41 43 70.5t75 29.5z" />
    <glyph glyph-name="uni1EE3" unicode="&#x1ee3;" horiz-adv-x="1121" 
d="M1158 1094h99l-16 -89q-21 -123 -75 -179t-129 -56q-17 0 -35 3q38 -82 38 -188q0 -113 -40 -221t-111 -193t-177.5 -137.5t-230.5 -52.5q-178 0 -289 108.5t-111 291.5q0 90 25 178t73.5 164.5t115 135t155.5 92.5t189 34q193 0 304 -122q39 -19 80 -19q92 0 119 155z
M484 95q93 0 174.5 43t135.5 112.5t85 155.5t31 173q0 134 -76 213.5t-199 79.5q-94 0 -175.5 -43.5t-134.5 -113.5t-83 -156t-30 -173q0 -134 74.5 -212.5t197.5 -78.5zM420 -312q41 0 65.5 -30t17.5 -70q-7 -42 -42 -71t-75 -29q-41 0 -66 29t-18 71q8 41 43 70.5t75 29.5
z" />
    <glyph glyph-name="uni1EE4" unicode="&#x1ee4;" horiz-adv-x="1357" 
d="M597 -19q-192 0 -309.5 104t-117.5 279q0 52 9 94l165 936h136l-163 -928q-9 -40 -9 -87q0 -132 79.5 -202t212.5 -70q160 0 281.5 98t152.5 272l162 917h135l-166 -947q-25 -142 -108.5 -249t-202.5 -162t-257 -55zM501 -512q-41 0 -66 29t-18 71q8 41 43 70.5t75 29.5
q41 0 65.5 -30t17.5 -70q-7 -42 -42 -71t-75 -29z" />
    <glyph glyph-name="uni1EE5" unicode="&#x1ee5;" horiz-adv-x="1050" 
d="M834 966h131l-170 -966h-127l21 135q-55 -73 -133 -113.5t-169 -40.5q-123 0 -198 68.5t-75 191.5q0 35 8 80l114 645h131l-110 -623q-7 -36 -7 -69q0 -90 49 -133.5t130 -43.5q111 0 194 72.5t105 200.5h1zM387 -312q41 0 65.5 -30t17.5 -70q-7 -42 -42 -71t-75 -29
q-41 0 -66 29t-18 71q8 41 43 70.5t75 29.5z" />
    <glyph glyph-name="uni1EE6" unicode="&#x1ee6;" horiz-adv-x="1357" 
d="M824 1535l21 114q124 27 140 114q6 40 -14 65.5t-63 25.5t-91 -29l-36 60q67 46 137 46q78 0 121 -47t31 -119q-20 -116 -159 -156l-13 -74h-74zM597 -19q-192 0 -309.5 104t-117.5 279q0 52 9 94l165 936h136l-163 -928q-9 -40 -9 -87q0 -132 79.5 -202t212.5 -70
q160 0 281.5 98t152.5 272l162 917h135l-166 -947q-25 -142 -108.5 -249t-202.5 -162t-257 -55z" />
    <glyph glyph-name="uni1EE7" unicode="&#x1ee7;" horiz-adv-x="1050" 
d="M679 1386q-47 0 -91 -29l-36 61q68 45 137 45q78 0 121 -46.5t30 -119.5q-20 -114 -157 -156l-14 -74h-75l21 114q125 27 141 115q6 39 -14.5 64.5t-62.5 25.5zM834 966h131l-170 -966h-127l21 135q-55 -73 -133 -113.5t-169 -40.5q-123 0 -198 68.5t-75 191.5q0 35 8 80
l114 645h131l-110 -623q-7 -36 -7 -69q0 -90 49 -133.5t130 -43.5q111 0 194 72.5t105 200.5h1z" />
    <glyph glyph-name="uni1EE8" unicode="&#x1ee8;" horiz-adv-x="1357" 
d="M1172 1800l-269 -256h-100l303 313zM1513 1499h99l-16 -89q-21 -123 -75 -179t-129 -56q-45 0 -96 19l-131 -747q-25 -142 -108.5 -249t-202.5 -162t-257 -55q-192 0 -309.5 104t-117.5 279q0 52 9 94l165 936h136l-163 -928q-9 -40 -9 -87q0 -132 79.5 -202t212.5 -70
q160 0 281.5 98t152.5 272l162 917h135l-23 -131q37 -14 70 -14q92 0 119 155z" />
    <glyph glyph-name="uni1EE9" unicode="&#x1ee9;" horiz-adv-x="1050" 
d="M955 1401l-270 -256h-99l303 313zM1165 1071h99l-16 -89q-21 -123 -75 -179t-129 -56q-53 0 -113 26l-136 -773h-127l21 135q-55 -73 -133 -113.5t-169 -40.5q-123 0 -198 68.5t-75 191.5q0 35 8 80l114 645h131l-110 -623q-7 -36 -7 -69q0 -90 49 -133.5t130 -43.5
q111 0 194 72.5t105 200.5h1l105 596h131l-22 -123q43 -22 87 -22q92 0 119 155z" />
    <glyph glyph-name="uni1EEA" unicode="&#x1eea;" horiz-adv-x="1357" 
d="M913 1544h-100l-178 256l86 57zM1513 1499h99l-16 -89q-21 -123 -75 -179t-129 -56q-45 0 -96 19l-131 -747q-25 -142 -108.5 -249t-202.5 -162t-257 -55q-192 0 -309.5 104t-117.5 279q0 52 9 94l165 936h136l-163 -928q-9 -40 -9 -87q0 -132 79.5 -202t212.5 -70
q160 0 281.5 98t152.5 272l162 917h135l-23 -131q37 -14 70 -14q92 0 119 155z" />
    <glyph glyph-name="uni1EEB" unicode="&#x1eeb;" horiz-adv-x="1050" 
d="M695 1145h-100l-178 256l86 57zM1165 1071h99l-16 -89q-21 -123 -75 -179t-129 -56q-53 0 -113 26l-136 -773h-127l21 135q-55 -73 -133 -113.5t-169 -40.5q-123 0 -198 68.5t-75 191.5q0 35 8 80l114 645h131l-110 -623q-7 -36 -7 -69q0 -90 49 -133.5t130 -43.5
q111 0 194 72.5t105 200.5h1l105 596h131l-22 -123q43 -22 87 -22q92 0 119 155z" />
    <glyph glyph-name="uni1EEC" unicode="&#x1eec;" horiz-adv-x="1357" 
d="M908 1854q-43 0 -91 -29l-36 60q67 46 137 46q78 0 121 -47t31 -119q-20 -116 -159 -156l-13 -74h-74l21 114q124 27 140 114q6 40 -14 65.5t-63 25.5zM1513 1499h99l-16 -89q-21 -123 -75 -179t-129 -56q-45 0 -96 19l-131 -747q-25 -142 -108.5 -249t-202.5 -162
t-257 -55q-192 0 -309.5 104t-117.5 279q0 52 9 94l165 936h136l-163 -928q-9 -40 -9 -87q0 -132 79.5 -202t212.5 -70q160 0 281.5 98t152.5 272l162 917h135l-23 -131q37 -14 70 -14q92 0 119 155z" />
    <glyph glyph-name="uni1EED" unicode="&#x1eed;" horiz-adv-x="1050" 
d="M679 1386q-47 0 -91 -29l-36 61q68 45 137 45q78 0 121 -46.5t30 -119.5q-20 -114 -157 -156l-14 -74h-75l21 114q125 27 141 115q6 39 -14.5 64.5t-62.5 25.5zM1165 1071h99l-16 -89q-21 -123 -75 -179t-129 -56q-53 0 -113 26l-136 -773h-127l21 135
q-55 -73 -133 -113.5t-169 -40.5q-123 0 -198 68.5t-75 191.5q0 35 8 80l114 645h131l-110 -623q-7 -36 -7 -69q0 -90 49 -133.5t130 -43.5q111 0 194 72.5t105 200.5h1l105 596h131l-22 -123q43 -22 87 -22q92 0 119 155z" />
    <glyph glyph-name="uni1EEE" unicode="&#x1eee;" horiz-adv-x="1357" 
d="M748 1708q-53 0 -94 -45.5t-54 -116.5h-79q19 105 85 173t154 68q110 0 160 -109q29 -68 101 -68q54 0 94 43.5t52 115.5h79q-18 -105 -83 -172t-154 -67q-114 0 -162 108q-30 70 -99 70zM1513 1499h99l-16 -89q-21 -123 -75 -179t-129 -56q-45 0 -96 19l-131 -747
q-25 -142 -108.5 -249t-202.5 -162t-257 -55q-192 0 -309.5 104t-117.5 279q0 52 9 94l165 936h136l-163 -928q-9 -40 -9 -87q0 -132 79.5 -202t212.5 -70q160 0 281.5 98t152.5 272l162 917h135l-23 -131q37 -14 70 -14q92 0 119 155z" />
    <glyph glyph-name="uni1EEF" unicode="&#x1eef;" horiz-adv-x="1050" 
d="M550 1286q-43 0 -75 -38t-43 -98h-83q17 96 75.5 157t137.5 61q99 0 140 -96q24 -53 81 -53q44 0 74.5 36t41.5 98h84q-17 -94 -75 -155.5t-137 -61.5q-99 0 -145 95q-25 55 -76 55zM1165 1071h99l-16 -89q-21 -123 -75 -179t-129 -56q-53 0 -113 26l-136 -773h-127
l21 135q-55 -73 -133 -113.5t-169 -40.5q-123 0 -198 68.5t-75 191.5q0 35 8 80l114 645h131l-110 -623q-7 -36 -7 -69q0 -90 49 -133.5t130 -43.5q111 0 194 72.5t105 200.5h1l105 596h131l-22 -123q43 -22 87 -22q92 0 119 155z" />
    <glyph glyph-name="uni1EF0" unicode="&#x1ef0;" horiz-adv-x="1357" 
d="M1513 1499h99l-16 -89q-21 -123 -75 -179t-129 -56q-45 0 -96 19l-131 -747q-25 -142 -108.5 -249t-202.5 -162t-257 -55q-192 0 -309.5 104t-117.5 279q0 52 9 94l165 936h136l-163 -928q-9 -40 -9 -87q0 -132 79.5 -202t212.5 -70q160 0 281.5 98t152.5 272l162 917
h135l-23 -131q37 -14 70 -14q92 0 119 155zM535 -312q41 0 65.5 -30t17.5 -70q-7 -42 -42 -71t-75 -29q-41 0 -66 29t-18 71q8 41 43 70.5t75 29.5z" />
    <glyph glyph-name="uni1EF1" unicode="&#x1ef1;" horiz-adv-x="1050" 
d="M1165 1071h99l-16 -89q-21 -123 -75 -179t-129 -56q-53 0 -113 26l-136 -773h-127l21 135q-55 -73 -133 -113.5t-169 -40.5q-123 0 -198 68.5t-75 191.5q0 35 8 80l114 645h131l-110 -623q-7 -36 -7 -69q0 -90 49 -133.5t130 -43.5q111 0 194 72.5t105 200.5h1l105 596
h131l-22 -123q43 -22 87 -22q92 0 119 155zM387 -312q41 0 65.5 -30t17.5 -70q-7 -42 -42 -71t-75 -29q-41 0 -66 29t-18 71q8 41 43 70.5t75 29.5z" />
    <glyph glyph-name="Ygrave" unicode="&#x1ef2;" horiz-adv-x="1124" 
d="M798 1544h-100l-178 256l86 57zM1250 1394l-591 -732l-116 -662h-137l117 667l-328 727h152l263 -606l476 606h164z" />
    <glyph glyph-name="ygrave" unicode="&#x1ef3;" horiz-adv-x="920" 
d="M626 1145h-100l-178 256l86 57zM834 966h145l-797 -1421h-142l269 480l-198 941h145l148 -797z" />
    <glyph glyph-name="uni1EF4" unicode="&#x1ef4;" horiz-adv-x="1124" 
d="M1250 1394l-591 -732l-116 -662h-137l117 667l-328 727h152l263 -606l476 606h164zM420 -312q41 0 65.5 -30t17.5 -70q-7 -42 -42 -71t-75 -29q-41 0 -66 29t-18 71q8 41 43 70.5t75 29.5z" />
    <glyph glyph-name="uni1EF5" unicode="&#x1ef5;" horiz-adv-x="920" 
d="M834 966h145l-797 -1421h-142l269 480l-198 941h145l148 -797zM601 -312q41 0 65.5 -30t17.5 -70q-7 -42 -42 -71t-75 -29q-41 0 -66 29t-18 71q8 41 43 70.5t75 29.5z" />
    <glyph glyph-name="uni1EF6" unicode="&#x1ef6;" horiz-adv-x="1124" 
d="M793 1854q-43 0 -91 -29l-36 60q67 46 137 46q78 0 121 -47t31 -119q-20 -116 -159 -156l-13 -74h-74l21 114q124 27 140 114q6 40 -14 65.5t-63 25.5zM1250 1394l-591 -732l-116 -662h-137l117 667l-328 727h152l263 -606l476 606h164z" />
    <glyph glyph-name="uni1EF7" unicode="&#x1ef7;" horiz-adv-x="920" 
d="M610 1386q-47 0 -91 -29l-36 61q68 45 137 45q78 0 121 -46.5t30 -119.5q-20 -114 -157 -156l-14 -74h-75l21 114q125 27 141 115q6 39 -14.5 64.5t-62.5 25.5zM834 966h145l-797 -1421h-142l269 480l-198 941h145l148 -797z" />
    <glyph glyph-name="uni1EF8" unicode="&#x1ef8;" horiz-adv-x="1124" 
d="M633 1708q-53 0 -94 -45.5t-54 -116.5h-79q19 105 85 173t154 68q110 0 160 -109q29 -68 101 -68q54 0 94 43.5t52 115.5h79q-18 -105 -83 -172t-154 -67q-114 0 -162 108q-30 70 -99 70zM1250 1394l-591 -732l-116 -662h-137l117 667l-328 727h152l263 -606l476 606h164
z" />
    <glyph glyph-name="uni1EF9" unicode="&#x1ef9;" horiz-adv-x="920" 
d="M481 1286q-43 0 -75 -38t-43 -98h-83q17 96 75.5 157t137.5 61q99 0 140 -96q24 -53 81 -53q44 0 74.5 36t41.5 98h84q-17 -94 -75 -155.5t-137 -61.5q-99 0 -145 95q-25 55 -76 55zM834 966h145l-797 -1421h-142l269 480l-198 941h145l148 -797z" />
    <glyph glyph-name="endash" unicode="&#x2013;" horiz-adv-x="1352" 
d="M162 477l20 111h1024l-20 -111h-1024z" />
    <glyph glyph-name="emdash" unicode="&#x2014;" horiz-adv-x="2376" 
d="M162 477l20 111h2048l-20 -111h-2048z" />
    <glyph glyph-name="quoteleft" unicode="&#x2018;" horiz-adv-x="534" 
d="M176 786l273 609h101l-228 -609h-146z" />
    <glyph glyph-name="quoteright" unicode="&#x2019;" horiz-adv-x="532" 
d="M196 786l230 609h143l-271 -609h-102z" />
    <glyph glyph-name="quotesinglbase" unicode="&#x201a;" horiz-adv-x="532" 
d="M-6 -359l228 609h145l-270 -609h-103z" />
    <glyph glyph-name="quotedblleft" unicode="&#x201c;" horiz-adv-x="884" 
d="M176 786l273 609h101l-228 -609h-146zM526 786l272 609h101l-228 -609h-145z" />
    <glyph glyph-name="quotedblright" unicode="&#x201d;" horiz-adv-x="882" 
d="M196 786l230 609h143l-271 -609h-102zM545 786l230 609h144l-271 -609h-103z" />
    <glyph glyph-name="quotedblbase" unicode="&#x201e;" horiz-adv-x="897" 
d="M-6 -359l228 609h145l-270 -609h-103zM359 -359l229 609h145l-271 -609h-103z" />
    <glyph glyph-name="dagger" unicode="&#x2020;" horiz-adv-x="982" 
d="M985 979l-16 -94h-365l-213 -1210h-96l213 1210h-353l16 94h354l73 416h96l-73 -416h364z" />
    <glyph glyph-name="daggerdbl" unicode="&#x2021;" horiz-adv-x="1047" 
d="M1002 885h-366l-122 -694h364l-16 -94h-365l-74 -422h-96l74 422h-353l16 94h354l122 694h-352l16 94h353l73 416h96l-73 -416h365z" />
    <glyph glyph-name="bullet" unicode="&#x2022;" horiz-adv-x="828" 
d="M415 432q-98 0 -157 69.5t-42 169.5q16 90 94 155.5t167 65.5q95 0 154.5 -72t42.5 -167q-16 -94 -92.5 -157.5t-166.5 -63.5z" />
    <glyph glyph-name="ellipsis" unicode="&#x2026;" horiz-adv-x="1793" 
d="M229 -20q-44 0 -70.5 32t-19.5 77q7 37 38 64t68 27q44 0 71.5 -33t19.5 -76q-7 -38 -38.5 -64.5t-68.5 -26.5zM824 -20q-44 0 -71 32t-20 77q8 38 39 64.5t68 26.5q44 0 71.5 -33t19.5 -76q-7 -39 -38.5 -65t-68.5 -26zM1406 -20q-44 0 -70.5 32t-19.5 77q7 37 38 64
t68 27q44 0 71.5 -33t19.5 -76q-7 -38 -38.5 -64.5t-68.5 -26.5z" />
    <glyph glyph-name="perthousand" unicode="&#x2030;" horiz-adv-x="2072" 
d="M459 866q-112 0 -172.5 66t-60.5 165q0 77 36.5 148.5t110 120.5t166.5 49q110 0 170.5 -66.5t60.5 -164.5q0 -121 -86.5 -219.5t-224.5 -98.5zM182 -2l996 1400h133l-996 -1400h-133zM463 970q92 0 151 65t59 144q0 57 -36 95t-102 38q-92 0 -150.5 -64.5t-58.5 -144.5
q0 -57 35 -95t102 -38zM969 -18q-112 0 -173.5 66.5t-61.5 164.5q0 77 36.5 148.5t110 120t167.5 48.5q110 0 170.5 -65.5t60.5 -163.5q0 -122 -86 -220.5t-224 -98.5zM1616 -18q-113 0 -174 66.5t-61 164.5q0 77 36 148t109.5 120t167.5 49q110 0 170.5 -65.5t60.5 -163.5
q0 -57 -21.5 -113.5t-60 -102.5t-98 -74.5t-129.5 -28.5zM972 84q91 0 150.5 66t59.5 146q0 56 -36 93.5t-102 37.5q-92 0 -150.5 -64.5t-58.5 -143.5q0 -58 35.5 -96.5t101.5 -38.5zM1618 84q91 0 151 66t60 146q0 56 -36 93.5t-103 37.5q-92 0 -150.5 -64.5t-58.5 -143.5
q0 -58 35.5 -96.5t101.5 -38.5z" />
    <glyph glyph-name="guilsinglleft" unicode="&#x2039;" horiz-adv-x="575" 
d="M331 214l-247 377l375 377h125l-380 -377l242 -377h-115z" />
    <glyph glyph-name="guilsinglright" unicode="&#x203a;" horiz-adv-x="571" 
d="M25 214l381 377l-243 377h115l248 -377l-376 -377h-125z" />
    <glyph glyph-name="fraction" unicode="&#x2044;" horiz-adv-x="472" 
d="M-339 0l1138 1536h112l-1137 -1536h-113z" />
    <glyph glyph-name="Euro" unicode="&#x20ac;" horiz-adv-x="1526" 
d="M1070 1279q-199 0 -341.5 -105t-217.5 -281h533l-18 -97h-550q-28 -98 -35 -201h549l-17 -96h-534q8 -194 118 -289.5t290 -95.5q107 0 213 51t189 141l103 -93q-108 -109 -242 -170.5t-268 -61.5q-239 0 -384.5 132.5t-152.5 385.5h-162l17 96h147q8 109 32 201h-143
l17 97h155q41 113 106 206.5t152.5 165t203 111t247.5 39.5q138 0 253.5 -64t187.5 -174l-122 -79q-51 89 -136 135t-190 46z" />
    <glyph glyph-name="uni2113" unicode="&#x2113;" horiz-adv-x="1105" 
d="M538 -11q-141 0 -226.5 97t-65.5 262q-99 -69 -137 -93l-36 86q29 21 92.5 63t95.5 66l95 516q18 101 50 180t70.5 128t85.5 81.5t91.5 45t91.5 12.5q112 0 168 -66t56 -171q0 -77 -26.5 -154.5t-89 -172t-177.5 -206.5t-281 -238q-3 -16 -6.5 -33t-5 -23.5t-2.5 -16.5
t-1.5 -19t-0.5 -24q-1 -103 53 -155.5t135 -52.5q98 0 191 62t150 143l64 -70q-185 -247 -434 -247zM413 565q243 202 347.5 349t104.5 286q0 133 -122 133q-33 0 -68 -18t-70.5 -55t-65 -105.5t-45.5 -158.5z" />
    <glyph glyph-name="uni2116" unicode="&#x2116;" horiz-adv-x="2877" 
d="M1228 234l228 1302h134l-271 -1536h-117l-670 1304l-229 -1304h-134l271 1536h121zM2196 312q-107 0 -190.5 36t-134 98t-76 140.5t-25.5 168.5q0 116 41.5 232t116.5 211t191 154.5t253 59.5q86 0 157 -23.5t120.5 -64.5t83.5 -97t50 -120.5t16 -136.5
q0 -92 -25.5 -185.5t-77.5 -178.5t-123 -150.5t-169 -104.5t-208 -39zM2368 1291q-105 0 -195.5 -49t-149 -127t-91.5 -172t-33 -186q0 -67 18 -125t53.5 -103.5t94 -71.5t133.5 -26q106 0 197 49t150 127t92 172t33 186q0 141 -76.5 233.5t-225.5 92.5zM1671 0l18 98h924
l-18 -98h-924z" />
    <glyph glyph-name="trademark" unicode="&#x2122;" horiz-adv-x="1598" 
d="M284 1462v74h435v-74h-179v-648h-78v648h-178zM1382 1536h83v-722h-78v586l-246 -407l-247 404v-583h-80v722h85l241 -402z" />
    <glyph glyph-name="estimated" unicode="&#x212e;" horiz-adv-x="2004" 
d="M1071 -18q-178 0 -340 62t-279 167.5t-186 250.5t-69 304q0 215 117 397t318 287.5t439 105.5q179 0 341.5 -62.5t280 -168t186.5 -252t69 -307.5v-21h-1417q-13 0 -13 -8v-430q0 -22 19 -49q106 -109 245 -171t291 -62q167 0 313.5 69.5t252.5 192.5h125
q-119 -141 -301.5 -223t-391.5 -82zM531 788h1087q8 0 8 15v430q0 34 -20 51q-106 105 -243.5 165t-289.5 60q-150 0 -288 -61.5t-246 -169.5q-21 -24 -21 -53v-422q0 -5 3.5 -10t9.5 -5z" />
    <glyph glyph-name="partialdiff" unicode="&#x2202;" horiz-adv-x="1146" 
d="M536 1442q173 21 298.5 -76.5t173.5 -284.5t5 -418q-34 -183 -121 -331t-209 -231.5t-253 -83.5q-153 0 -238.5 79.5t-84.5 219t91 307.5q64 115 151 196t181.5 119t193 34.5t186.5 -52.5q-7 206 -109.5 320t-274.5 94zM434 115q94 0 187 72t165 202.5t103 291.5
q13 66 18 128q-148 107 -315 40t-279 -278q-72 -128 -79 -233.5t46.5 -164t153.5 -58.5z" />
    <glyph glyph-name="emptyset" unicode="&#x2205;" horiz-adv-x="1545" 
d="M793 -16q-236 0 -410 158l-88 -89l-45 45l88 89q-158 174 -158 409q0 166 82 307t223.5 223t307.5 82q116 0 221 -41.5t188 -116.5l88 89l45 -45l-88 -89q158 -174 158 -409q0 -166 -82 -307t-223 -223t-307 -82zM417 265l706 707q-139 123 -330 123q-136 0 -251.5 -66.5
t-182 -181.5t-66.5 -251q0 -193 124 -331zM793 97q136 0 251 66.5t181.5 181.5t66.5 251q0 192 -123 331l-707 -707q139 -123 331 -123z" />
    <glyph glyph-name="product" unicode="&#x220f;" horiz-adv-x="1592" 
d="M187 0l224 1274h-129l22 121h1307l-22 -121h-131l-223 -1274h-120l224 1274h-807l-223 -1274h-122z" />
    <glyph glyph-name="summation" unicode="&#x2211;" horiz-adv-x="1372" 
d="M25 2l15 97l772 669l-533 671l16 97h1150l-21 -118h-954l510 -650l-736 -649h952l-21 -117h-1150z" />
    <glyph glyph-name="minus" unicode="&#x2212;" horiz-adv-x="1227" 
d="M287 618v116h724v-116h-724z" />
    <glyph glyph-name="radical" unicode="&#x221a;" horiz-adv-x="1367" 
d="M375 0l-106 726h-136l20 113h213l98 -644l880 1341h128l-1005 -1536h-92z" />
    <glyph glyph-name="infinity" unicode="&#x221e;" horiz-adv-x="1688" 
d="M488 305q-115 0 -193.5 83t-83.5 208q5 125 83.5 208t193.5 83q178 0 375 -214q92 103 189 158.5t186 55.5q118 0 194.5 -81.5t81.5 -209.5q-5 -128 -81.5 -209.5t-194.5 -81.5q-89 0 -186 55t-189 158q-197 -213 -375 -213zM488 408q66 0 146 49t159 139
q-79 90 -159 139t-146 49q-70 0 -121 -54.5t-53 -133.5q2 -79 53 -133.5t121 -54.5zM1238 408q70 0 120.5 54t52.5 134q-2 80 -52.5 134t-120.5 54q-137 0 -308 -188q171 -188 308 -188z" />
    <glyph glyph-name="integral" unicode="&#x222b;" horiz-adv-x="923" 
d="M-83 -457l16 133q168 0 261 79t122 245l199 1131q22 126 110.5 205t202.5 79q107 0 176 -68l-81 -96q-35 39 -92 39q-68 0 -120 -51t-67 -131l-196 -1115q-39 -217 -178.5 -333.5t-352.5 -116.5z" />
    <glyph glyph-name="approxequal" unicode="&#x2248;" horiz-adv-x="1412" 
d="M954 663q-47 0 -87 12.5t-76.5 41.5t-53 45.5t-49.5 53.5q-43 48 -80.5 72.5t-82.5 24.5q-80 0 -130 -63.5t-52 -163.5h-110q1 151 82.5 244t210.5 93q76 0 132.5 -37.5t120.5 -113.5q30 -34 47.5 -51t50.5 -34t69 -17q78 0 128 62t52 163h109q-2 -144 -79.5 -238
t-201.5 -94zM954 252q-38 0 -74 10.5t-60 23t-52.5 37t-42 38.5t-37.5 42q-44 50 -79.5 74.5t-83.5 24.5q-81 -1 -130.5 -64.5t-51.5 -163.5h-110q1 151 82.5 244.5t210.5 93.5q76 0 133 -36.5t120 -112.5q21 -26 35.5 -40.5t35.5 -31.5t44.5 -24.5t51.5 -7.5q78 0 128 62.5
t52 164.5h109q-2 -146 -79.5 -240t-201.5 -94z" />
    <glyph glyph-name="notequal" unicode="&#x2260;" horiz-adv-x="1211" 
d="M220 0l225 429h-253v116h313l147 283h-460v116h520l217 412h105l-215 -412h271v-116h-333l-147 -283h480v-116h-540l-225 -429h-105z" />
    <glyph glyph-name="lessequal" unicode="&#x2264;" horiz-adv-x="1481" 
d="M1297 1396v-129l-1005 -476l1005 -479v-130l-1131 540v138zM166 0v106h1131v-106h-1131z" />
    <glyph glyph-name="greaterequal" unicode="&#x2265;" horiz-adv-x="1547" 
d="M243 1396l1131 -536v-138l-1131 -540v130l1005 479l-1005 476v129zM243 0v106h1131v-106h-1131z" />
    <glyph glyph-name="lozenge" unicode="&#x25ca;" horiz-adv-x="1407" 
d="M745 106l-619 617l619 618l616 -616zM746 260l461 465l-461 461l-465 -463z" />
    <glyph glyph-name="uniF8FF" unicode="&#xf8ff;" horiz-adv-x="1862" 
d="M983 0q-158 0 -302 62t-248 166t-166 248t-62 302t62 302.5t166 248.5t248 165.5t302 61.5t302.5 -61.5t248.5 -165.5t165.5 -248.5t61.5 -302.5t-61.5 -302t-165.5 -248t-248.5 -166t-302.5 -62zM983 74q143 0 273.5 56t225 150.5t150 224.5t55.5 273t-55.5 273.5
t-150 225t-225 150.5t-273.5 56q-190 0 -352.5 -94.5t-257.5 -257t-95 -353.5q0 -190 95 -352.5t257.5 -257t352.5 -94.5zM1390 444q-10 0 -23 13l-296 295q-13 12 -13 27.5t11 25.5l297 297q10 10 25 10t26 -10q11 -11 11 -26.5t-11 -26.5l-270 -271l270 -270q22 -22 0 -51
q-10 -13 -27 -13zM575 444q-15 0 -26 11t-11 26v594q0 16 11 26.5t26 10.5q16 0 26.5 -10.5t10.5 -26.5v-594q0 -15 -10.5 -26t-26.5 -11zM983 444q-16 0 -26.5 11t-10.5 26v594q0 16 10.5 26.5t26.5 10.5q15 0 26 -10.5t11 -26.5v-594q0 -15 -11 -26t-26 -11zM686 741
q-16 0 -26.5 11t-10.5 26q0 16 10.5 26.5t26.5 10.5h186q16 0 26.5 -10.5t10.5 -26.5q0 -15 -10.5 -26t-26.5 -11h-186z" />
    <glyph glyph-name="G.ss02" horiz-adv-x="1546" 
d="M727 -19q-148 0 -267 49.5t-197.5 140t-108 228t-0.5 304.5q38 219 157.5 382.5t286.5 246t359 82.5q193 0 334.5 -84t201.5 -243l-129 -59q-48 127 -156 190t-256 63q-241 0 -426.5 -158.5t-234.5 -434.5q-24 -140 -1.5 -247.5t83 -180.5t151 -110.5t202.5 -37.5
q219 0 390.5 135.5t208.5 331.5l-504 -5l22 122l643 -5q-14 -88 -37 -164q-79 -251 -270.5 -398.5t-451.5 -147.5z" />
    <glyph glyph-name="Gbreve.ss02" horiz-adv-x="1546" 
d="M978 1545q-149 0 -227.5 66t-55.5 196h87q-17 -94 41.5 -140t169.5 -46q112 0 186 46t91 140h87q-23 -130 -125.5 -196t-253.5 -66zM727 -19q-148 0 -267 49.5t-197.5 140t-108 228t-0.5 304.5q38 219 157.5 382.5t286.5 246t359 82.5q193 0 334.5 -84t201.5 -243
l-129 -59q-48 127 -156 190t-256 63q-241 0 -426.5 -158.5t-234.5 -434.5q-24 -140 -1.5 -247.5t83 -180.5t151 -110.5t202.5 -37.5q219 0 390.5 135.5t208.5 331.5l-504 -5l22 122l643 -5q-14 -88 -37 -164q-79 -251 -270.5 -398.5t-451.5 -147.5z" />
    <glyph glyph-name="Gcommaaccent.ss02" horiz-adv-x="1546" 
d="M727 -19q-148 0 -267 49.5t-197.5 140t-108 228t-0.5 304.5q38 219 157.5 382.5t286.5 246t359 82.5q193 0 334.5 -84t201.5 -243l-129 -59q-48 127 -156 190t-256 63q-241 0 -426.5 -158.5t-234.5 -434.5q-24 -140 -1.5 -247.5t83 -180.5t151 -110.5t202.5 -37.5
q219 0 390.5 135.5t208.5 331.5l-504 -5l22 122l643 -5q-14 -88 -37 -164q-79 -251 -270.5 -398.5t-451.5 -147.5zM463 -554l-70 33l222 363h128z" />
    <glyph glyph-name="Gdotaccent.ss02" horiz-adv-x="1546" 
d="M980 1545q-41 0 -65 29.5t-19 70.5q9 42 44 71t76 29t65.5 -29.5t15.5 -70.5q-6 -40 -41 -70t-76 -30zM727 -19q-148 0 -267 49.5t-197.5 140t-108 228t-0.5 304.5q38 219 157.5 382.5t286.5 246t359 82.5q193 0 334.5 -84t201.5 -243l-129 -59q-48 127 -156 190t-256 63
q-241 0 -426.5 -158.5t-234.5 -434.5q-24 -140 -1.5 -247.5t83 -180.5t151 -110.5t202.5 -37.5q219 0 390.5 135.5t208.5 331.5l-504 -5l22 122l643 -5q-14 -88 -37 -164q-79 -251 -270.5 -398.5t-451.5 -147.5z" />
    <glyph glyph-name="i.loclTRK" horiz-adv-x="474" 
d="M383 1265q-41 0 -67 29.5t-22 70.5q4 42 36.5 71t74.5 29q41 0 68 -29.5t21 -70.5q-5 -41 -38 -70.5t-73 -29.5zM84 0l171 968h135l-171 -968h-135z" />
    <glyph glyph-name="f_t" horiz-adv-x="1169" 
d="M128 0l151 858h-186l20 110h186l56 318q22 127 97.5 198.5t184.5 71.5q61 0 121 -22l-11 -109q-38 19 -85 19q-65 0 -114 -45t-62 -124l-54 -307h272q62 0 104.5 35.5t54.5 99.5l33 191h128l-57 -326h230l-19 -110h-231l-106 -601q-12 -71 19 -108.5t93 -37.5h92
l-19 -111h-114q-113 0 -169.5 68.5t-35.5 186.5l107 603h-402l-151 -858h-133z" />
    <glyph glyph-name="t_t" horiz-adv-x="1201" 
d="M380 0q-112 0 -169 68.5t-36 186.5l107 603h-201l19 110h75q60 0 101 34.5t51 94.5l25 139h131l-48 -268h303q60 0 101 34.5t52 94.5l24 139h131l-47 -268h230l-19 -110h-231l-107 -601q-12 -71 19.5 -108.5t93.5 -37.5h92l-19 -111h-114q-113 0 -170 68.5t-36 186.5
l108 603h-430l-107 -601q-12 -71 19 -108.5t94 -37.5h91l-19 -111h-114z" />
    <glyph glyph-name="uni0308.case" 
d="M-403 1545q-38 0 -61.5 28.5t-17.5 66.5q8 40 41.5 68t72.5 28t62 -28t15 -68q-6 -38 -39.5 -66.5t-72.5 -28.5zM-51 1545q-39 0 -62 28t-17 67q8 40 41 68t72 28t62.5 -28t15.5 -68q-6 -38 -40 -66.5t-72 -28.5z" />
    <glyph glyph-name="uni0307.case" 
d="M-55 1545q-41 0 -65 29.5t-19 70.5q9 42 44 71t76 29t65.5 -29.5t15.5 -70.5q-6 -40 -41 -70t-76 -30z" />
    <glyph glyph-name="gravecomb.case" 
d="M32 1545l-178 256l86 57l192 -313h-100z" />
    <glyph glyph-name="acutecomb.case" 
d="M-210 1545l303 313l66 -57l-269 -256h-100z" />
    <glyph glyph-name="uni030B.case" 
d="M-564 1545l303 313l66 -57l-269 -256h-100zM-210 1545l303 313l66 -57l-269 -256h-100z" />
    <glyph glyph-name="uni0302.case" 
d="M-307 1545h-97l257 294h112l154 -294h-99l-122 234z" />
    <glyph glyph-name="uni030C.case" 
d="M-205 1545l-154 294h98l122 -236l204 236h100l-258 -294h-112z" />
    <glyph glyph-name="uni0306.case" 
d="M-261 1545q-149 0 -227.5 66t-55.5 196h87q-17 -94 41.5 -140t169.5 -46q112 0 186 46t91 140h87q-23 -130 -125.5 -196t-253.5 -66z" />
    <glyph glyph-name="uni030A.case" 
d="M-128 1545q-78 0 -125.5 47t-48.5 122q-1 93 66.5 162t165.5 69q79 0 125.5 -47t46.5 -120q2 -92 -65.5 -162.5t-164.5 -70.5zM-119 1618q61 0 105.5 44t44.5 105q0 47 -30 78t-77 31q-61 0 -106.5 -47t-45.5 -106q0 -47 30 -76t79 -29z" />
    <glyph glyph-name="tildecomb.case" 
d="M-140 1531q-114 0 -162 108q-30 70 -99 70q-53 0 -94 -45.5t-54 -116.5h-79q19 105 85 173t154 68q110 0 160 -109q29 -68 101 -68q54 0 94 43.5t52 115.5h79q-18 -105 -83 -172t-154 -67z" />
    <glyph glyph-name="uni0304.case" 
d="M-620 1545l16 91h641l-16 -91h-641z" />
    <glyph glyph-name="hookabovecomb.case" 
d="M-133 1536l21 114q124 27 140 114q6 40 -14 65.5t-63 25.5t-91 -29l-36 60q67 46 137 46q78 0 121 -47t31 -119q-20 -116 -159 -156l-13 -74h-74z" />
    <glyph glyph-name="uni0312.case" 
d="M27 1845h100l-174 -300h-142z" />
    <glyph glyph-name="uni0338.case" 
d="M-993 8l1100 1580l81 -52l-1098 -1576z" />
    <glyph glyph-name="uni03060301" 
d="M-280 1715l303 313l66 -57l-270 -256h-99zM-308 1230q-143 0 -222 85t-55 221h88q-17 -100 40.5 -165t161.5 -65q106 0 187.5 65.5t97.5 164.5h87q-24 -137 -132 -221.5t-253 -84.5z" />
    <glyph glyph-name="uni03060300" 
d="M-271 1715l-178 256l86 57l192 -313h-100zM-308 1230q-143 0 -222 85t-55 221h88q-17 -100 40.5 -165t161.5 -65q106 0 187.5 65.5t97.5 164.5h87q-24 -137 -132 -221.5t-253 -84.5z" />
    <glyph glyph-name="uni03060309" 
d="M-272 1637l21 114q125 27 141 115q6 39 -14.5 64.5t-62.5 25.5q-47 0 -91 -29l-36 61q68 45 137 45q78 0 121 -46.5t30 -119.5q-20 -114 -157 -156l-14 -74h-75zM-308 1230q-143 0 -222 85t-55 221h88q-17 -100 40.5 -165t161.5 -65q106 0 187.5 65.5t97.5 164.5h87
q-24 -137 -132 -221.5t-253 -84.5z" />
    <glyph glyph-name="uni03060303" 
d="M-95 1706q-99 0 -145 95q-25 55 -76 55q-43 0 -75 -38t-43 -98h-83q17 96 75.5 157t137.5 61q99 0 140 -96q24 -53 81 -53q44 0 74.5 36t41.5 98h84q-17 -94 -75 -155.5t-137 -61.5zM-308 1230q-143 0 -222 85t-55 221h88q-17 -100 40.5 -165t161.5 -65q106 0 187.5 65.5
t97.5 164.5h87q-24 -137 -132 -221.5t-253 -84.5z" />
    <glyph glyph-name="uni03020301" 
d="M-172 1715l303 313l66 -57l-270 -256h-99zM-360 1242h-97l257 294h112l154 -294h-99l-122 234z" />
    <glyph glyph-name="uni03020300" 
d="M-163 1715l-178 256l86 57l192 -313h-100zM-360 1242h-97l257 294h112l154 -294h-99l-122 234z" />
    <glyph glyph-name="uni03020309" 
d="M-164 1637l21 114q125 27 141 115q6 39 -14.5 64.5t-62.5 25.5q-47 0 -91 -29l-36 61q68 45 137 45q78 0 121 -46.5t30 -119.5q-20 -114 -157 -156l-14 -74h-75zM-360 1242h-97l257 294h112l154 -294h-99l-122 234z" />
    <glyph glyph-name="uni03020303" 
d="M13 1706q-99 0 -145 95q-25 55 -76 55q-43 0 -75 -38t-43 -98h-83q17 96 75.5 157t137.5 61q99 0 140 -96q24 -53 81 -53q44 0 74.5 36t41.5 98h84q-17 -94 -75 -155.5t-137 -61.5zM-360 1242h-97l257 294h112l154 -294h-99l-122 234z" />
    <glyph glyph-name="uni03060301.case" 
d="M-245 1957l303 313l66 -57l-269 -256h-100zM-261 1545q-149 0 -227.5 66t-55.5 196h87q-17 -94 41.5 -140t169.5 -46q112 0 186 46t91 140h87q-23 -130 -125.5 -196t-253.5 -66z" />
    <glyph glyph-name="uni03060300.case" 
d="M-235 1957l-178 256l86 57l192 -313h-100zM-261 1545q-149 0 -227.5 66t-55.5 196h87q-17 -94 41.5 -140t169.5 -46q112 0 186 46t91 140h87q-23 -130 -125.5 -196t-253.5 -66z" />
    <glyph glyph-name="uni03060309.case" 
d="M-224 1948l21 114q124 27 140 114q6 40 -14 65.5t-63 25.5t-91 -29l-36 60q67 46 137 46q78 0 121 -47t31 -119q-20 -116 -159 -156l-13 -74h-74zM-261 1545q-149 0 -227.5 66t-55.5 196h87q-17 -94 41.5 -140t169.5 -46q112 0 186 46t91 140h87q-23 -130 -125.5 -196
t-253.5 -66z" />
    <glyph glyph-name="uni03060303.case" 
d="M-39 1943q-114 0 -162 108q-30 70 -99 70q-53 0 -94 -45.5t-54 -116.5h-79q19 105 85 173t154 68q110 0 160 -109q29 -68 101 -68q54 0 94 43.5t52 115.5h79q-18 -105 -83 -172t-154 -67zM-261 1545q-149 0 -227.5 66t-55.5 196h87q-17 -94 41.5 -140t169.5 -46
q112 0 186 46t91 140h87q-23 -130 -125.5 -196t-253.5 -66z" />
    <glyph glyph-name="uni03020301.case" 
d="M-123 1989l303 313l66 -57l-269 -256h-100zM-307 1545h-97l257 294h112l154 -294h-99l-122 234z" />
    <glyph glyph-name="uni03020300.case" 
d="M-113 1989l-178 256l86 57l192 -313h-100zM-307 1545h-97l257 294h112l154 -294h-99l-122 234z" />
    <glyph glyph-name="uni03020309.case" 
d="M-102 1980l21 114q124 27 140 114q6 40 -14 65.5t-63 25.5t-91 -29l-36 60q67 46 137 46q78 0 121 -47t31 -119q-20 -116 -159 -156l-13 -74h-74zM-307 1545h-97l257 294h112l154 -294h-99l-122 234z" />
    <glyph glyph-name="uni03020303.case" 
d="M83 1975q-114 0 -162 108q-30 70 -99 70q-53 0 -94 -45.5t-54 -116.5h-79q19 105 85 173t154 68q110 0 160 -109q29 -68 101 -68q54 0 94 43.5t52 115.5h79q-18 -105 -83 -172t-154 -67zM-307 1545h-97l257 294h112l154 -294h-99l-122 234z" />
    </font>
</defs>
</svg>
