<?xml version="1.0" standalone="no"?>
<!DOCTYPE svg PUBLIC "-//W3C//DTD SVG 1.1//EN" "http://www.w3.org/Graphics/SVG/1.1/DTD/svg11.dtd" >
<svg xmlns="http://www.w3.org/2000/svg" xmlns:xlink="http://www.w3.org/1999/xlink" version="1.1">
<metadata>
Created by FontForge 20161013 at Sun Jul 23 14:12:00 2017
 By ,,,
Copyright (c)2016. Cerebri Sans is a trademark of Alfredo Marco Pradil. All rights reserved.
</metadata>
<defs>
<font id="CerebriSans-MediumItalic" horiz-adv-x="0" >
  <font-face 
    font-family="Cerebri Sans Medium Italic"
    font-weight="500"
    font-style="italic"
    font-stretch="normal"
    units-per-em="2048"
    panose-1="0 0 6 0 0 0 0 0 0 0"
    ascent="1536"
    descent="-512"
    x-height="1001"
    cap-height="1422"
    bbox="-1645 -577 2869 2383"
    underline-thickness="82"
    underline-position="-348"
    slope="-10"
    unicode-range="U+0020-FB02"
  />
<missing-glyph horiz-adv-x="1305" 
d="M256 0v1536h886v-1536h-886zM433 177h532v1182h-532v-1182z" />
    <glyph glyph-name="fi" unicode="fi" horiz-adv-x="1203" 
d="M743 1001l-30 -171h-225l-147 -830h-217l146 830h-194l30 171h194l42 236q57 319 333 319q75 0 154 -27l-14 -159q-41 12 -87 12q-64 0 -111 -41t-59 -113l-40 -227h225zM1102 1503q57 0 94.5 -41t30.5 -99q-6 -58 -52.5 -99.5t-103.5 -41.5q-58 0 -95 41t-32 100
q6 58 52.5 99t105.5 41zM729 0l178 1006h231l-178 -1006h-231z" />
    <glyph glyph-name="fl" unicode="fl" horiz-adv-x="1190" 
d="M743 1001l-30 -171h-225l-147 -830h-217l146 830h-194l30 171h194l42 236q57 319 333 319q75 0 154 -27l-14 -159q-41 12 -87 12q-64 0 -111 -41t-59 -113l-40 -227h225zM999 1536h221l-271 -1536h-222z" />
    <glyph glyph-name="f_f" unicode="ff" horiz-adv-x="1318" 
d="M125 0l146 826h-195l32 180h195l40 224q55 326 341 326q77 0 158 -28l-16 -165q-43 13 -91 13q-61 0 -106.5 -40t-58.5 -114l-38 -216h412l40 224q55 326 341 326q77 0 158 -28l-16 -165q-45 13 -91 13q-61 0 -106.5 -40t-58.5 -114l-37 -216h227l-32 -180h-227
l-147 -826h-229l146 826h-411l-147 -826h-229z" />
    <glyph glyph-name=".notdef" horiz-adv-x="1305" 
d="M256 0v1536h886v-1536h-886zM433 177h532v1182h-532v-1182z" />
    <glyph glyph-name=".null" 
 />
    <glyph glyph-name="nonmarkingreturn" horiz-adv-x="682" 
 />
    <glyph glyph-name="space" unicode=" " horiz-adv-x="532" 
 />
    <glyph glyph-name="exclam" unicode="!" horiz-adv-x="635" 
d="M209 430l155 996h231l-196 -996h-190zM240 -20q-64 0 -102 46t-26 110q9 53 51.5 89t94.5 36q65 0 102.5 -46.5t26.5 -111.5q-9 -51 -52 -87t-95 -36z" />
    <glyph glyph-name="quotedbl" unicode="&#x22;" horiz-adv-x="1002" 
d="M276 778l88 648h219l-134 -648h-173zM652 778l94 648h218l-140 -648h-172z" />
    <glyph glyph-name="numbersign" unicode="#" horiz-adv-x="1516" 
d="M224 0l106 336h-280l52 168h281l135 418h-282l56 165h275l112 343h168l-107 -343h349l108 343h171l-110 -343h283l-56 -165h-279l-132 -418h279l-54 -168h-277l-112 -336h-166l107 336h-353l-107 -336h-167zM553 504h350l134 418h-353z" />
    <glyph glyph-name="dollar" unicode="$" horiz-adv-x="1336" 
d="M785 813q78 -21 131 -40t116.5 -54.5t98.5 -78t53 -109t4 -149.5q-18 -100 -69.5 -177t-126.5 -124t-164 -72t-190 -28l-24 -135h-102l24 137q-200 15 -319.5 121t-121.5 279l252 43q-1 -108 59.5 -170.5t164.5 -74.5l81 462l-13 4q-77 22 -127 40t-110 52t-92 73.5
t-48.5 102.5t-2.5 141q22 123 101 212.5t190.5 132.5t243.5 44l23 131h103l-24 -136q172 -20 281.5 -111.5t115.5 -251.5l-236 -44q-7 186 -196 209zM496 1027q-12 -70 37 -109.5t155 -74.5l70 399q-100 -11 -172.5 -65t-89.5 -150zM944 404q13 79 -37.5 124t-157.5 83
l-76 -429q108 12 181.5 67.5t89.5 154.5z" />
    <glyph glyph-name="percent" unicode="%" horiz-adv-x="1591" 
d="M474 819q-120 0 -197 78.5t-77 195.5q0 88 47 169.5t130 133t178 51.5q120 0 197 -78.5t77 -194.5q0 -138 -105 -246.5t-250 -108.5zM223 -1l1006 1429h205l-1007 -1429h-204zM481 978q78 0 135 56.5t57 132.5q0 52 -35.5 86.5t-89.5 34.5q-75 0 -133 -56.5t-58 -133.5
q0 -52 35.5 -86t88.5 -34zM1114 -17q-121 0 -198.5 77.5t-77.5 194.5q0 138 106 246t251 108q118 0 194.5 -77t76.5 -193q0 -138 -103.5 -247t-248.5 -109zM1121 141q75 0 133.5 57.5t58.5 132.5q0 51 -36 86t-89 35q-77 0 -135 -56t-58 -134q0 -51 36 -86t90 -35z" />
    <glyph glyph-name="ampersand" unicode="&#x26;" horiz-adv-x="1523" 
d="M505 -20q-197 0 -314.5 88t-117.5 250q0 80 16 136.5t66.5 121t144 132t248.5 156.5q-55 91 -78.5 149t-23.5 113q0 142 110.5 231.5t283.5 89.5q152 0 239.5 -69.5t87.5 -182.5q0 -111 -79 -200.5t-263 -191.5l217 -361q80 90 133.5 191.5t69.5 196.5l209 -16
q-26 -148 -104 -289t-196 -257l168 -268h-261l-79 136q-230 -156 -477 -156zM732 947q125 74 178 134.5t53 117.5q0 42 -31 66.5t-85 24.5q-80 0 -132 -50.5t-52 -124.5q0 -32 9.5 -55t47.5 -91q2 -5 3.5 -7.5t4 -6.5t4.5 -8zM519 172q183 0 362 130l-238 406
q-101 -57 -159 -95t-107.5 -83.5t-69.5 -92t-20 -104.5q0 -81 60.5 -121t171.5 -40z" />
    <glyph glyph-name="quotesingle" unicode="'" horiz-adv-x="624" 
d="M273 778l95 648h217l-140 -648h-172z" />
    <glyph glyph-name="parenleft" unicode="(" horiz-adv-x="670" 
d="M334 -566q-175 136 -238.5 426.5t2.5 679.5q66 373 227.5 660.5t380.5 422.5l113 -165q-177 -105 -319 -359.5t-201 -591.5q-58 -334 -9.5 -579.5t189.5 -348.5z" />
    <glyph glyph-name="parenright" unicode=")" horiz-adv-x="670" 
d="M-29 -577l-113 166q178 106 319.5 359.5t201.5 591.5q58 330 9.5 577.5t-189.5 350.5l144 145q174 -137 238.5 -428t-1.5 -678q-67 -375 -228.5 -661.5t-380.5 -422.5z" />
    <glyph glyph-name="asterisk" unicode="*" horiz-adv-x="972" 
d="M422 858l-106 68l188 204q25 25 22.5 38t-32.5 9l-266 -30l22 130l240 -33q29 -5 49 16t8 45l-127 195l119 65l58 -240q7 -28 27 -22t35 36l139 226l108 -65l-189 -208q-25 -23 -23 -36.5t33 -9.5l265 31l-21 -130l-242 32q-31 5 -49.5 -15.5t-4.5 -45.5l128 -192
l-122 -68l-57 240q-4 19 -15.5 22.5t-24.5 -7t-23 -30.5z" />
    <glyph glyph-name="plus" unicode="+" horiz-adv-x="1192" 
d="M540 206v395h-396v180h396v395h180v-395h394v-180h-394v-395h-180z" />
    <glyph glyph-name="comma" unicode="," horiz-adv-x="639" 
d="M-1 -365l237 637h241l-308 -637h-170z" />
    <glyph glyph-name="hyphen" unicode="-" horiz-adv-x="1016" 
d="M137 436l34 193h717l-34 -193h-717z" />
    <glyph glyph-name="period" unicode="." horiz-adv-x="635" 
d="M241 -20q-63 0 -101 46t-27 110q9 52 52 88.5t94 36.5q64 0 102 -47t27 -111q-9 -51 -52.5 -87t-94.5 -36z" />
    <glyph glyph-name="slash" unicode="/" horiz-adv-x="849" 
d="M-170 -389l994 1925h219l-994 -1925h-219z" />
    <glyph glyph-name="zero" unicode="0" horiz-adv-x="1188" 
d="M518 -19q-245 0 -344.5 190t-35.5 559q63 357 218 536.5t389 179.5q246 0 345 -190t34 -559q-63 -356 -219 -536t-387 -180zM524 190q134 0 231 135t145 405q89 506 -161 506q-133 0 -230 -133t-145 -406q-90 -507 160 -507z" />
    <glyph glyph-name="one" unicode="1" horiz-adv-x="1188" 
d="M740 1426h221l-252 -1426h-230l209 1182l-385 -299l38 240z" />
    <glyph glyph-name="two" unicode="2" horiz-adv-x="1188" 
d="M1133 1024q-19 -104 -80 -194t-177 -194l-497 -428h653l-37 -208h-983l28 174l671 591q187 165 200 301q13 91 -35.5 141t-140.5 50q-111 0 -192.5 -68.5t-103.5 -193.5q-11 -57 -6 -137l-226 37q-2 74 8 130q34 196 176.5 309.5t346.5 113.5q205 0 317 -114t78 -310z
" />
    <glyph glyph-name="three" unicode="3" horiz-adv-x="1188" 
d="M511 -19q-104 0 -190 28.5t-147.5 83t-87 143t-5.5 199.5q6 39 16 71l241 -3q-24 -62 -30 -100q-19 -107 42 -163t166 -56q129 0 218 72.5t109 186.5q19 109 -36 167t-163 58h-70l32 185h53q82 0 153 63.5t87 155.5q13 80 -34 126t-135 46q-98 0 -170.5 -56.5
t-89.5 -151.5q-7 -29 -4 -59l-228 24q0 41 6 67q29 170 168 274t320 104q192 0 300.5 -112t79.5 -276q-18 -102 -86 -177.5t-155 -108.5q104 -30 165 -126t34 -246q-34 -191 -187.5 -305t-371.5 -114z" />
    <glyph glyph-name="four" unicode="4" horiz-adv-x="1188" 
d="M1138 486l-36 -207h-197l-49 -279h-230l49 279h-669l33 208l715 939h354l-166 -940h196zM270 486h442l138 786z" />
    <glyph glyph-name="five" unicode="5" horiz-adv-x="1188" 
d="M1158 1217h-595l-80 -295h147q268 0 383 -123t74 -346q-37 -213 -190.5 -342.5t-367.5 -129.5q-102 0 -188 31t-146.5 88.5t-85.5 146.5t-6 197q6 31 16 63h233q-19 -56 -22 -81q-15 -81 12 -135t76 -75.5t113 -21.5q128 0 217 77t111 196q23 127 -40.5 193t-240.5 66
h-376l197 699h796z" />
    <glyph glyph-name="six" unicode="6" horiz-adv-x="1188" 
d="M728 965q92 -8 167.5 -45.5t127 -99.5t72 -155t1.5 -204q-23 -139 -111 -249.5t-211.5 -169.5t-257.5 -59q-223 0 -349 143.5t-88 360.5q29 169 177 335l571 604h272l-440 -461q37 3 69 0zM877 499q21 126 -42 200.5t-185 74.5q-132 0 -233 -89.5t-124 -220.5
q-23 -126 38.5 -198.5t185.5 -72.5q133 0 235 85t125 221z" />
    <glyph glyph-name="seven" unicode="7" horiz-adv-x="1188" 
d="M267 1426h990l-29 -183l-890 -1243h-268l886 1219h-726z" />
    <glyph glyph-name="eight" unicode="8" horiz-adv-x="1188" 
d="M519 -19q-198 0 -321 99t-123 268q0 148 82 264.5t234 179.5q-59 37 -93.5 99t-34.5 140t35 153t96 133t153.5 93.5t198.5 35.5q171 0 276.5 -88t105.5 -231q0 -111 -61.5 -203.5t-167.5 -149.5q86 -38 136 -114.5t50 -181.5q0 -96 -40 -185t-111.5 -158.5t-179.5 -111.5
t-235 -42zM651 853q78 0 140 39t92.5 94t30.5 111q0 71 -50 116t-129 45q-107 0 -185.5 -69.5t-78.5 -174.5q0 -71 50 -116t130 -45zM528 189q80 0 145 28.5t105 74.5t61.5 100t21.5 109q0 88 -60.5 139t-159.5 51q-140 0 -237 -88t-97 -222q0 -89 61 -140.5t160 -51.5z" />
    <glyph glyph-name="nine" unicode="9" horiz-adv-x="1188" 
d="M745 1444q145 0 255 -64.5t160 -181t24 -259.5q-35 -171 -180 -335l-571 -604h-275l440 462q-25 -2 -66 0q-90 7 -165.5 47.5t-126.5 105.5t-71.5 156.5t-2.5 195.5q24 138 111 248.5t210.5 169.5t257.5 59zM967 963q22 126 -39 198.5t-185 72.5q-131 0 -233.5 -85.5
t-124.5 -220.5q-22 -125 41.5 -200.5t185.5 -75.5q131 0 231.5 90t123.5 221z" />
    <glyph glyph-name="colon" unicode=":" horiz-adv-x="615" 
d="M349 655q-63 0 -101 46.5t-27 111.5q9 51 52.5 87.5t95.5 36.5q63 0 101.5 -47t27.5 -110q-11 -52 -54 -88.5t-95 -36.5zM230 -20q-63 0 -101 46t-27 110q10 52 53 88.5t94 36.5q64 0 102 -47t27 -111q-9 -51 -52.5 -87t-95.5 -36z" />
    <glyph glyph-name="semicolon" unicode=";" horiz-adv-x="635" 
d="M388 655q-64 0 -102 46.5t-27 111.5q9 51 53 87.5t96 36.5q62 0 100.5 -47t28.5 -110q-10 -52 -54 -88.5t-95 -36.5zM-34 -365l237 637h241l-308 -637h-170z" />
    <glyph glyph-name="less" unicode="&#x3c;" horiz-adv-x="1420" 
d="M1272 1408v-200l-943 -476l943 -476v-203l-1131 572v216z" />
    <glyph glyph-name="equal" unicode="=" horiz-adv-x="1236" 
d="M217 819v180h823v-180h-823zM217 395v180h823v-180h-823z" />
    <glyph glyph-name="greater" unicode="&#x3e;" horiz-adv-x="1419" 
d="M229 1408l1131 -567v-216l-1131 -572v203l943 476l-943 476v200z" />
    <glyph glyph-name="question" unicode="?" horiz-adv-x="1030" 
d="M400 420l22 125q17 94 68 144.5t159 104.5q151 57 184 235q18 108 -31.5 167t-147.5 59q-108 0 -190.5 -72.5t-102.5 -185.5q-6 -38 -5 -75l-195 37q2 46 9 91q32 176 166 286.5t319 110.5q198 0 304.5 -122.5t71.5 -323.5q-14 -75 -43.5 -137.5t-70.5 -105.5t-83 -71.5
t-91 -48.5q-60 -19 -94.5 -50t-43.5 -81l-14 -87h-191zM438 -20q-64 0 -101.5 46t-26.5 110q10 52 53 88t94 36q62 0 99.5 -46.5t26.5 -110.5q-10 -52 -52 -87.5t-93 -35.5z" />
    <glyph glyph-name="at" unicode="@" horiz-adv-x="1756" 
d="M772 -210q-141 0 -263 49t-206.5 134t-133 203t-48.5 253q0 122 41 247.5t120 239t185.5 202t248 141t296.5 52.5q190 0 338.5 -83t229.5 -228t81 -326q0 -99 -24.5 -192t-70.5 -169t-121.5 -122t-168.5 -46q-196 0 -242 133h-15q-100 -125 -265 -125q-99 0 -163.5 47.5
t-64.5 136.5q0 111 79 175.5t233 93.5l215 41q10 61 11 76q3 55 -31 81t-90 26q-66 0 -119.5 -35t-66.5 -98l-140 51q30 96 115 146.5t212 50.5q80 0 141.5 -20t103.5 -71.5t42 -130.5q0 -33 -28.5 -185.5t-28.5 -178.5q0 -87 100 -87q68 0 118 38.5t76.5 100.5t39 127.5
t12.5 133.5q0 222 -139.5 359t-363.5 137q-118 0 -225.5 -34.5t-188.5 -93t-147.5 -134t-109 -158t-65 -164.5t-22.5 -155q0 -215 143.5 -356t367.5 -141q174 0 342 95l57 -135q-182 -102 -397 -102zM808 274q77 0 143.5 53t84.5 148l13 68l-172 -41q-96 -20 -138 -61
t-42 -90q0 -77 111 -77z" />
    <glyph glyph-name="A" unicode="A" horiz-adv-x="1392" 
d="M1036 0l-57 322h-626l-171 -322h-237l774 1422h275l275 -1422h-233zM457 517h487l-122 685z" />
    <glyph glyph-name="B" unicode="B" horiz-adv-x="1258" 
d="M955 737q200 -68 200 -288q0 -64 -13.5 -122.5t-51 -119.5t-96 -105.5t-156.5 -73t-224 -28.5h-511l251 1422h384q428 0 428 -317q0 -263 -211 -368zM958 1063q0 39 -9.5 66.5t-34 51.5t-73 36t-121.5 12h-182l-71 -412h201q140 0 215 69t75 177zM603 198q92 0 160 20.5
t106 57t55.5 79t17.5 91.5q0 190 -232 190h-274l-75 -438h242z" />
    <glyph glyph-name="C" unicode="C" horiz-adv-x="1522" 
d="M734 -19q-277 0 -445 158t-168 429q0 134 37 262.5t110.5 238.5t173.5 193.5t234.5 131.5t286.5 48q226 0 382.5 -109t205.5 -298l-220 -67q-34 127 -134 194.5t-244 67.5q-134 0 -250 -55.5t-193 -146.5t-121 -207.5t-44 -238.5q0 -183 109.5 -285.5t288.5 -102.5
q152 0 284 73t211 202l200 -95q-113 -187 -299.5 -290t-404.5 -103z" />
    <glyph glyph-name="D" unicode="D" horiz-adv-x="1440" 
d="M103 0l251 1422h474q275 0 419 -146t144 -397q0 -103 -20 -204.5t-59.5 -201t-105 -184.5t-151.5 -150t-204.5 -102t-257.5 -37h-490zM367 204h237q117 0 212 42t157 109.5t104 156.5t60 179.5t18 182.5q0 167 -88 256.5t-268 89.5h-253z" />
    <glyph glyph-name="E" unicode="E" horiz-adv-x="1090" 
d="M1107 1220h-557l-72 -409h492l-35 -201h-492l-72 -406h557l-36 -204h-789l251 1422h789z" />
    <glyph glyph-name="F" unicode="F" horiz-adv-x="1053" 
d="M1116 1220h-566l-72 -408h493l-36 -202h-493l-108 -610h-231l251 1422h798z" />
    <glyph glyph-name="G" unicode="G" horiz-adv-x="1605" 
d="M723 -19q-273 0 -438.5 156t-165.5 425q0 169 59 326.5t165 281t267 198t351 74.5q204 0 353 -88.5t213 -250.5l-211 -94q-42 116 -136.5 173t-226.5 57q-111 0 -209.5 -38t-170.5 -103.5t-124.5 -151.5t-78.5 -184.5t-26 -200.5q0 -182 106.5 -280t295.5 -98
q186 0 325.5 98t197.5 283l-443 -7l34 187h662l-132 -744h-183l46 233q-93 -123 -227.5 -187.5t-302.5 -64.5z" />
    <glyph glyph-name="H" unicode="H" horiz-adv-x="1512" 
d="M1255 1422h228l-252 -1422h-227l108 612h-672l-108 -612h-229l251 1422h230l-108 -609h672z" />
    <glyph glyph-name="I" unicode="I" horiz-adv-x="612" 
d="M103 0l251 1422h228l-251 -1422h-228z" />
    <glyph glyph-name="J" unicode="J" horiz-adv-x="952" 
d="M282 -19q-173 0 -332 93l120 181q86 -67 196 -67q111 0 184.5 73.5t96.5 206.5l168 954h228l-179 -1011q-35 -205 -165.5 -317.5t-316.5 -112.5z" />
    <glyph glyph-name="K" unicode="K" horiz-adv-x="1337" 
d="M761 740l-2 -9l446 -731h-270l-378 644h-112l-114 -644h-228l251 1422h228l-102 -576h121l566 576h286z" />
    <glyph glyph-name="L" unicode="L" horiz-adv-x="932" 
d="M369 204h473l-36 -204h-703l251 1422h228z" />
    <glyph glyph-name="M" unicode="M" horiz-adv-x="1885" 
d="M1482 1422h317l-140 -1422h-223l105 1131l-614 -1131h-142l-216 1135l-296 -1135h-226l364 1422h311l199 -1025z" />
    <glyph glyph-name="N" unicode="N" horiz-adv-x="1574" 
d="M1317 1422h226l-251 -1422h-249l-519 1102l-195 -1102h-226l251 1422h247l523 -1097z" />
    <glyph glyph-name="O" unicode="O" horiz-adv-x="1621" 
d="M734 -19q-277 0 -445 158t-168 429q0 134 37 262.5t110.5 238.5t173.5 193.5t234.5 131.5t286.5 48q275 0 443.5 -158t168.5 -428q0 -168 -60 -325.5t-166.5 -279.5t-267 -196t-347.5 -74zM743 193q135 0 251 56t192.5 147.5t120 208t43.5 238.5q0 182 -109 284.5
t-288 102.5q-134 0 -250 -56t-193.5 -147.5t-121 -207.5t-43.5 -238q0 -183 109.5 -285.5t288.5 -102.5z" />
    <glyph glyph-name="P" unicode="P" horiz-adv-x="1263" 
d="M855 1422q206 0 314 -110t108 -290q0 -102 -33 -189t-98 -154t-171 -105t-243 -38h-307l-94 -536h-228l251 1422h501zM717 730q341 0 341 280q0 102 -57.5 161t-180.5 59h-273l-88 -500h258z" />
    <glyph glyph-name="Q" unicode="Q" horiz-adv-x="1647" 
d="M1586 855q0 -192 -77 -368.5t-217 -300.5l185 -253l-204 -70l-153 206q-174 -88 -381 -88q-279 0 -449 158t-170 430q0 168 60 325t167.5 279t269 195.5t350.5 73.5q278 0 448.5 -158t170.5 -429zM344 575q0 -185 110.5 -288.5t290.5 -103.5q137 0 255 57t195.5 150
t121 211t43.5 242q0 182 -110 284.5t-292 102.5q-110 0 -208 -36.5t-171 -99.5t-127 -146t-81 -178.5t-27 -194.5z" />
    <glyph glyph-name="R" unicode="R" horiz-adv-x="1269" 
d="M1218 1086q0 -57 -12.5 -112.5t-41.5 -110.5t-71.5 -99t-107.5 -76.5t-144 -44.5l289 -643h-250l-267 636h-170l-111 -636h-229l251 1422h483q190 0 285.5 -92t95.5 -244zM547 1229l-77 -439h222q71 0 126.5 19t89 48t55 66.5t29.5 70t8 63.5q0 172 -216 172h-237z" />
    <glyph glyph-name="S" unicode="S" horiz-adv-x="1256" 
d="M591 -19q-234 0 -382.5 107.5t-151.5 290.5l239 41q6 -116 89 -182.5t219 -66.5t223 63t87 165q0 45 -18.5 81.5t-41 58.5t-71.5 44.5t-78.5 32t-93.5 28.5q-7 2 -10 3q-49 14 -82 25t-77.5 29.5t-73.5 37t-60.5 47t-50 60.5t-30.5 75.5t-12 94.5q0 187 149.5 306.5
t373.5 119.5q99 0 187 -22t159.5 -65t114.5 -114.5t47 -162.5l-224 -42q-4 109 -81.5 162t-195.5 53q-128 0 -215 -62t-87 -153q0 -30 8.5 -55t19.5 -43t34.5 -35t42 -27.5t54 -23t56.5 -19t64 -18.5q53 -15 87.5 -25.5t84 -30t81.5 -39t68 -50t57 -64.5t35 -81.5t14 -102.5
q0 -137 -74 -238t-199 -152t-285 -51z" />
    <glyph glyph-name="T" unicode="T" horiz-adv-x="1008" 
d="M1134 1422l-36 -202h-355l-215 -1220h-225l215 1220h-355l36 202h935z" />
    <glyph glyph-name="U" unicode="U" horiz-adv-x="1397" 
d="M618 -19q-211 0 -339.5 105.5t-128.5 297.5q0 55 10 106l165 932h227l-161 -916q-9 -50 -9 -90q0 -117 65.5 -174.5t177.5 -57.5q142 0 247 86.5t135 250.5l159 901h228l-167 -948q-22 -121 -79 -216.5t-138.5 -155t-181 -90.5t-210.5 -31z" />
    <glyph glyph-name="V" unicode="V" horiz-adv-x="1356" 
d="M1238 1422h246l-775 -1422h-243l-270 1422h234l202 -1150z" />
    <glyph glyph-name="W" unicode="W" horiz-adv-x="2067" 
d="M350 0l-142 1422h231l111 -1133l543 1133h196l136 -1133l519 1133h239l-643 -1422h-280l-136 1008l-493 -1008h-281z" />
    <glyph glyph-name="X" unicode="X" horiz-adv-x="1442" 
d="M-58 0l688 742l-410 680h270l300 -517l484 517h281l-656 -680l421 -742h-282l-298 562l-502 -562h-296z" />
    <glyph glyph-name="Y" unicode="Y" horiz-adv-x="1205" 
d="M1348 1422l-604 -748l-118 -674h-230l121 682l-336 740h245l232 -542l424 542h266z" />
    <glyph glyph-name="Z" unicode="Z" horiz-adv-x="1206" 
d="M1270 1422l-30 -183l-930 -1035h765l-36 -204h-1046l31 182l933 1038h-747l36 202h1024z" />
    <glyph glyph-name="bracketleft" unicode="[" horiz-adv-x="657" 
d="M-27 -512l362 2048h466l-29 -166h-263l-303 -1716h263l-30 -166h-466z" />
    <glyph glyph-name="backslash" unicode="\" horiz-adv-x="1498" 
d="M1149 -389l-994 1925h219l994 -1925h-219z" />
    <glyph glyph-name="bracketright" unicode="]" horiz-adv-x="657" 
d="M-140 -512l29 166h264l303 1716h-263l28 166h466l-361 -2048h-466z" />
    <glyph glyph-name="asciicircum" unicode="^" horiz-adv-x="1383" 
d="M1274 296h-192l-258 928l-584 -928h-202l711 1130h212z" />
    <glyph glyph-name="underscore" unicode="_" horiz-adv-x="1323" 
d="M27 -193l33 193h1024l-33 -193h-1024z" />
    <glyph glyph-name="grave" unicode="`" horiz-adv-x="467" 
d="M399 1214l-179 264l131 84l196 -348h-148z" />
    <glyph glyph-name="a" unicode="a" horiz-adv-x="1253" 
d="M969 1001h218l-177 -1001h-200l16 162q-60 -87 -155.5 -136t-202.5 -49q-179 0 -292 114.5t-113 309.5q0 114 41 225t112.5 198.5t178 141.5t227.5 54q117 0 201.5 -52t115.5 -141zM528 164q82 0 154.5 38.5t120 98t74.5 131t27 139.5q0 115 -66.5 190t-181.5 75
q-108 0 -195 -63t-131.5 -157t-44.5 -194q0 -119 66.5 -188.5t176.5 -69.5z" />
    <glyph glyph-name="b" unicode="b" horiz-adv-x="1252" 
d="M783 1020q178 0 291 -114t113 -306q0 -115 -40.5 -226.5t-111.5 -199.5t-177.5 -142.5t-228.5 -54.5q-118 0 -203.5 53.5t-116.5 144.5l-35 -175h-211l272 1536h218l-117 -682q60 80 151.5 123t195.5 43zM587 164q111 0 200.5 64.5t135 159t45.5 194.5q0 117 -66.5 185.5
t-175.5 68.5q-82 0 -154.5 -38.5t-121 -99t-76.5 -134t-28 -145.5q0 -115 66.5 -185t174.5 -70z" />
    <glyph glyph-name="c" unicode="c" horiz-adv-x="1115" 
d="M507 -18q-202 0 -324 115.5t-122 309.5q0 116 42.5 226t118 196t190 138.5t248.5 52.5q183 0 296.5 -94t126.5 -258l-203 -14q-12 94 -71 142t-153 48q-85 0 -157.5 -40t-119.5 -104t-73.5 -141.5t-26.5 -154.5q0 -113 62 -178.5t167 -65.5q102 0 186.5 53t130.5 149
l200 -40q-70 -163 -209 -251.5t-309 -88.5z" />
    <glyph glyph-name="d" unicode="d" horiz-adv-x="1251" 
d="M1063 1536h218l-271 -1536h-209l20 155q-60 -84 -153.5 -131t-199.5 -47q-179 0 -292 114t-113 307q0 92 25.5 183t75.5 169.5t117 139t155.5 95.5t186.5 35q115 0 200 -52.5t117 -141.5zM532 164q82 0 153.5 37.5t117.5 97t72.5 130.5t26.5 140q0 120 -68.5 193.5
t-179.5 73.5q-81 0 -152 -36.5t-117.5 -95t-73 -131t-26.5 -146.5q0 -122 68 -192.5t179 -70.5z" />
    <glyph glyph-name="e" unicode="e" horiz-adv-x="1128" 
d="M656 1021q190 0 301.5 -99t111.5 -288q0 -62 -11 -123l-11 -49h-770q-4 -32 -4 -72q0 -114 65.5 -173t171.5 -59q88 0 166 45t129 123l194 -48q-76 -141 -206 -219t-284 -78q-206 0 -325 109t-119 304q0 121 40 233t113.5 200t187.5 141t250 53zM654 862
q-124 0 -210.5 -68t-130.5 -181h548q3 24 3 46q0 101 -56.5 152t-153.5 51z" />
    <glyph glyph-name="f" unicode="f" horiz-adv-x="664" 
d="M728 1382q-64 0 -111 -41t-59 -113l-40 -227h225l-30 -171h-225l-147 -830h-217l146 830h-194l30 171h194l42 236q57 319 333 319q75 0 154 -27l-14 -159q-41 12 -87 12z" />
    <glyph glyph-name="g" unicode="g" horiz-adv-x="1229" 
d="M951 1001h211l-167 -948q-46 -264 -198.5 -395.5t-384.5 -131.5q-385 0 -456 315l189 69q24 -107 87.5 -157.5t173.5 -50.5q150 0 246 93.5t123 258.5l23 138q-57 -73 -149.5 -117t-194.5 -44q-170 0 -280.5 113t-110.5 295q0 154 73 288t197 213.5t268 79.5
q115 0 200.5 -53t116.5 -138zM518 213q144 0 255 115.5t111 264.5q0 107 -67.5 178.5t-174.5 71.5q-97 0 -182.5 -55t-134.5 -143t-49 -184q0 -109 67.5 -178.5t174.5 -69.5z" />
    <glyph glyph-name="h" unicode="h" horiz-adv-x="1139" 
d="M757 1020q131 0 208 -71t77 -198q0 -27 -8 -85l-119 -666h-218l114 643q5 35 5 56q0 73 -40 107.5t-107 34.5q-58 0 -110.5 -21.5t-98.5 -72.5t-68 -125l-110 -622h-219l272 1536h218l-118 -668q129 152 322 152z" />
    <glyph glyph-name="i" unicode="i" horiz-adv-x="539" 
d="M407 1222q-58 0 -95 41t-32 100q6 58 52.5 99t105.5 41q57 0 94.5 -41t30.5 -99q-6 -58 -52.5 -99.5t-103.5 -41.5zM65 0l178 1006h231l-178 -1006h-231z" />
    <glyph glyph-name="j" unicode="j" horiz-adv-x="541" 
d="M408 1222q-58 0 -95 41t-32 100q6 58 52.5 99t105.5 41q57 0 94.5 -41t30.5 -99q-6 -58 -52.5 -99.5t-103.5 -41.5zM-228 -471l30 186q69 0 112.5 15t74 55t48 96.5t34.5 151.5l172 973h233l-174 -990q-47 -264 -167 -375.5t-363 -111.5z" />
    <glyph glyph-name="k" unicode="k" horiz-adv-x="1070" 
d="M1118 1001l-489 -465l352 -536h-260l-289 456h-67l-80 -456h-222l272 1536h221l-162 -921h75l389 386h260z" />
    <glyph glyph-name="l" unicode="l" horiz-adv-x="526" 
d="M63 0l272 1536h221l-271 -1536h-222z" />
    <glyph glyph-name="m" unicode="m" horiz-adv-x="1691" 
d="M1313 1020q129 0 205.5 -66.5t76.5 -186.5q0 -29 -7 -75l-122 -692h-218l114 648q5 35 5 57q0 136 -140 136q-86 0 -154.5 -62.5t-88.5 -180.5l-106 -598h-222l113 643q5 37 5 58q0 140 -141 140q-85 0 -154.5 -63t-89.5 -180l-106 -598h-218l177 1001h218l-24 -134
q124 153 297 153q101 0 169.5 -43.5t93.5 -123.5q62 78 143.5 122.5t173.5 44.5z" />
    <glyph glyph-name="n" unicode="n" horiz-adv-x="1140" 
d="M758 1020q132 0 208.5 -71t76.5 -198q0 -27 -8 -85l-119 -666h-219l115 643q5 35 5 55q0 143 -155 143q-88 0 -164 -57.5t-106 -168.5l-109 -615h-218l177 1001h218l-23 -133q128 152 321 152z" />
    <glyph glyph-name="o" unicode="o" horiz-adv-x="1189" 
d="M516 -19q-204 0 -328.5 113t-124.5 308q0 120 42.5 231t118.5 197.5t192.5 138t254.5 51.5q206 0 329.5 -113t123.5 -308q0 -120 -42.5 -231t-119 -197t-193 -138t-253.5 -52zM521 159q87 0 161.5 38.5t122.5 101t75 138t27 152.5q0 116 -66.5 185.5t-178.5 69.5
q-86 0 -160 -39.5t-121 -102t-73 -138.5t-26 -151q0 -118 64.5 -186t174.5 -68z" />
    <glyph glyph-name="p" unicode="p" horiz-adv-x="1252" 
d="M782 1020q179 0 291.5 -112.5t112.5 -304.5q0 -93 -25 -184t-74.5 -170.5t-116 -140.5t-155 -96t-187.5 -35q-114 0 -199.5 52t-117.5 140l-115 -666h-220l265 1498h209l-21 -156q59 83 153 129t200 46zM592 164q83 0 154.5 37t118.5 96.5t74 133t27 147.5q0 119 -68 188
t-176 69t-196.5 -64t-134 -157t-45.5 -189q0 -118 68 -189.5t178 -71.5z" />
    <glyph glyph-name="q" unicode="q" horiz-adv-x="1252" 
d="M977 1001h211l-264 -1498h-219l111 642q-59 -80 -151.5 -124t-194.5 -44q-178 0 -291 113t-113 306q0 118 40.5 230t112 199.5t178 141t228.5 53.5q116 0 201.5 -53t115.5 -143zM527 164q84 0 156.5 37.5t119.5 97t74 131t27 141.5q0 118 -68 191t-178 73
q-109 0 -196 -62t-131 -155.5t-44 -196.5q0 -121 66 -189t174 -68z" />
    <glyph glyph-name="r" unicode="r" horiz-adv-x="694" 
d="M426 835q52 76 146 126t197 51l-40 -214q-144 0 -237 -75t-120 -228l-87 -495h-220l177 1001h212z" />
    <glyph glyph-name="s" unicode="s" horiz-adv-x="937" 
d="M397 -19q-173 0 -270.5 75t-98.5 209l202 40q-3 -80 46 -125.5t133 -45.5t141.5 44t57.5 123q0 26 -10.5 46.5t-24.5 33.5t-44.5 25.5t-55.5 20t-71 19.5q-48 13 -82 24.5t-72 32t-61 45t-38.5 62.5t-15.5 85q0 153 114 238.5t287 85.5q99 0 176 -27.5t125.5 -89.5
t49.5 -152l-186 -30q2 76 -44 111.5t-117 35.5q-83 0 -140 -42t-57 -113q0 -23 9.5 -41.5t24.5 -30t39.5 -21.5t47.5 -16.5t57 -14.5q11 -3 17 -4q65 -17 109 -34t88.5 -47t67 -76t22.5 -108q0 -161 -119.5 -249.5t-306.5 -88.5z" />
    <glyph glyph-name="t" unicode="t" horiz-adv-x="717" 
d="M414 0q-115 0 -180 60.5t-65 167.5q0 33 7 68l95 534h-202l30 171h63q72 0 122 41t63 117l30 171h202l-58 -329h220l-29 -171h-222l-93 -526q-3 -15 -3 -40q0 -94 103 -94h98l-31 -170h-150z" />
    <glyph glyph-name="u" unicode="u" horiz-adv-x="1140" 
d="M856 1001h218l-177 -1001h-207l19 142q-62 -76 -145.5 -118.5t-180.5 -42.5q-134 0 -211 71t-77 199q0 36 8 84l119 666h218l-110 -624q-6 -36 -6 -63q0 -76 41 -112t109 -36q104 0 180 65t97 180h1z" />
    <glyph glyph-name="v" unicode="v" horiz-adv-x="1030" 
d="M873 1001h238l-592 -1001h-188l-236 1001h227l142 -752z" />
    <glyph glyph-name="w" unicode="w" horiz-adv-x="1636" 
d="M1478 1001h231l-524 -1002h-201l-126 726l-385 -726h-203l-165 1002h225l103 -719l384 719h169l129 -720z" />
    <glyph glyph-name="x" unicode="x" horiz-adv-x="1089" 
d="M-77 0l488 502l-305 499h266l192 -355l324 355h275l-488 -500l305 -501h-263l-192 353l-323 -353h-279z" />
    <glyph glyph-name="y" unicode="y" horiz-adv-x="1023" 
d="M870 1001h232l-855 -1472h-229l304 513l-225 959h236l135 -726z" />
    <glyph glyph-name="z" unicode="z" horiz-adv-x="900" 
d="M942 1001l-632 -828h476l-29 -173h-812l629 828h-447l31 173h784z" />
    <glyph glyph-name="braceleft" unicode="{" horiz-adv-x="634" 
d="M303 -500q-125 0 -189 76.5t-44 187.5l73 420q10 59 13.5 94t1 64.5t-17 47.5t-36 33t-60.5 31l10 134q105 38 145.5 91t65.5 190l73 418q20 112 102.5 180.5t207.5 68.5h114l-29 -161h-56q-50 0 -87.5 -37.5t-47.5 -101.5l-70 -392q-10 -54 -19.5 -89t-29 -75t-47 -67.5
t-72.5 -53.5t-106 -45q82 -29 123 -80t43.5 -114.5t-10.5 -143.5l-69 -395q-13 -66 3.5 -92.5t71.5 -26.5h71l-28 -162h-100z" />
    <glyph glyph-name="bar" unicode="|" horiz-adv-x="608" 
d="M88 -307l325 1843h147l-324 -1843h-148z" />
    <glyph glyph-name="braceright" unicode="}" horiz-adv-x="634" 
d="M-122 -500l28 162h56q55 0 89.5 35t45.5 100l70 396q13 68 26.5 109.5t42.5 87t79 77t126 55.5q-50 18 -84.5 44t-52.5 56t-25 69.5t-5 78.5t11 90l69 392q23 123 -75 123h-71l29 161h99q125 0 189.5 -76.5t44.5 -188.5l-74 -418q-19 -88 -15.5 -140.5t27 -78.5t86.5 -52
l-9 -135q-73 -26 -110.5 -55.5t-60 -79.5t-39.5 -144l-74 -420q-20 -111 -102.5 -179.5t-207.5 -68.5h-113z" />
    <glyph glyph-name="asciitilde" unicode="~" horiz-adv-x="1375" 
d="M904 334q-24 0 -47 3t-44 10.5t-37.5 14.5t-35 20t-30 20.5t-28 23.5t-23 22t-22 22.5t-17.5 18.5q-67 71 -123 71q-71 0 -111.5 -60.5t-42.5 -147.5h-169q-6 168 83.5 272.5t243.5 104.5q85 0 143 -36t116 -111q23 -28 36.5 -42t39 -27.5t54.5 -13.5q66 0 109.5 56.5
t39.5 149.5h167q13 -158 -74 -264.5t-228 -106.5z" />
    <glyph glyph-name="exclamdown" unicode="&#xa1;" horiz-adv-x="635" 
d="M374 743q-63 0 -101 46.5t-27 111.5q10 52 53 88t95 36q63 0 101 -46.5t27 -110.5q-10 -53 -53 -89t-95 -36zM37 -422l196 996h191l-156 -996h-231z" />
    <glyph glyph-name="cent" unicode="&#xa2;" horiz-adv-x="1148" 
d="M613 417q79 0 151.5 40.5t126.5 108.5l143 -150q-164 -176 -382 -193l-39 -223h-139l40 229q-187 34 -282.5 187t-56.5 370q38 215 186 360.5t345 168.5l39 221h140l-39 -222q100 -15 178 -68t126 -134l-174 -124q-30 65 -83.5 100t-124.5 35q-131 0 -240.5 -104
t-138.5 -265q-26 -149 39 -243t185 -94z" />
    <glyph glyph-name="sterling" unicode="&#xa3;" horiz-adv-x="1310" 
d="M50 0l26 144l54 12q48 8 81 39.5t41 79.5l58 331h-152l29 172h153l36 197q36 210 185.5 342t353.5 132q98 0 176.5 -33t128.5 -105t50 -172q0 -57 -24 -143l-208 -29q35 87 35 140q0 70 -46.5 107t-121.5 37q-123 0 -209 -78.5t-110 -214.5l-32 -180h308l-29 -172h-309
l-71 -405h652l-36 -201h-1019z" />
    <glyph glyph-name="currency" unicode="&#xa4;" horiz-adv-x="1367" 
d="M272 247l-106 130l129 111q-44 85 -44 187q0 191 132 337l-86 96l140 130l89 -104q126 79 268 79q152 0 253 -87l129 111l108 -125l-128 -113q44 -83 44 -186q0 -192 -132 -340l85 -96l-139 -130l-89 104q-124 -78 -268 -78q-148 0 -255 86zM672 447q80 0 147.5 32
t111 83t67.5 113.5t24 124.5q0 101 -62 169t-180 68q-80 0 -148 -32t-111.5 -83.5t-68 -114t-24.5 -124.5q0 -101 62.5 -168.5t181.5 -67.5z" />
    <glyph glyph-name="yen" unicode="&#xa5;" horiz-adv-x="1409" 
d="M496 0l41 229h-374l25 146h374l35 203h-374l26 145h348l-330 703h261l238 -535l432 535h272l-577 -703h339l-26 -145h-370l-35 -203h370l-25 -146h-371l-41 -229h-238z" />
    <glyph glyph-name="brokenbar" unicode="&#xa6;" horiz-adv-x="608" 
d="M283 799l130 737h147l-130 -737h-147zM88 -307l129 737h148l-129 -737h-148z" />
    <glyph glyph-name="section" unicode="&#xa7;" horiz-adv-x="1297" 
d="M734 834q80 -21 130 -37.5t115.5 -50t99.5 -73t53 -104t5 -145.5q-28 -152 -137 -245q77 -95 51 -240q-17 -97 -68.5 -171t-127 -117.5t-164 -65t-188.5 -21.5q-213 0 -342.5 101t-131.5 274l209 33q1 -115 75.5 -176.5t196.5 -61.5q84 0 153.5 22.5t121 76t64.5 132.5
q8 50 -7.5 86.5t-64.5 65t-83 41.5t-114 38q-21 7 -31 10q-93 24 -153 48t-121.5 67t-84 110.5t-6.5 159.5q27 152 147 240q-88 91 -62 244q31 175 173 269.5t333 94.5q127 0 227.5 -35.5t165 -114.5t68.5 -192l-198 -36q-5 107 -72.5 157.5t-180.5 50.5q-116 0 -207 -56.5
t-111 -166.5q-7 -44 5.5 -75.5t58 -57t74 -36.5t105.5 -35q16 -5 24 -8zM383 561q-7 -35 2.5 -63t31.5 -48.5t54 -36.5t71.5 -30t82.5 -27q16 -4 24 -7q119 -30 187 -59q82 57 99 160q8 49 -6.5 85t-64.5 64.5t-80.5 40.5t-113.5 38q-8 3 -12.5 4.5t-11 3.5t-12.5 4
q-86 24 -127 39q-104 -57 -124 -168z" />
    <glyph glyph-name="dieresis" unicode="&#xa8;" horiz-adv-x="879" 
d="M387 1222q-59 0 -96.5 41.5t-30.5 99.5q6 58 52.5 99t105.5 41q57 0 93.5 -41t31.5 -99q-6 -58 -52.5 -99.5t-103.5 -41.5zM790 1222q-59 0 -96.5 41.5t-30.5 99.5q6 58 52.5 99t104.5 41q57 0 94 -41t31 -99t-52 -99.5t-103 -41.5z" />
    <glyph glyph-name="copyright" unicode="&#xa9;" horiz-adv-x="1737" 
d="M905 -20q-199 0 -368.5 99t-268.5 268.5t-99 369.5q0 199 99 369t268.5 269t368.5 99q150 0 287 -58.5t236 -157.5t157.5 -235.5t58.5 -285.5q0 -150 -58.5 -286t-157.5 -235t-236 -157.5t-287 -58.5zM905 110q167 0 306.5 80.5t220 220t80.5 306.5q0 125 -47.5 237.5
t-128.5 193.5t-193.5 128.5t-237.5 47.5q-166 0 -305.5 -80.5t-220 -220.5t-80.5 -306q0 -167 80.5 -306.5t220 -220t305.5 -80.5zM907 297q-171 0 -293 122t-122 295q0 172 121 293.5t294 121.5q94 0 179 -39.5t142 -109.5l-109 -89q-37 48 -93 74.5t-119 26.5
q-115 0 -194 -80t-79 -198t79 -198t194 -80q133 0 212 101l109 -90q-57 -70 -142 -110t-179 -40z" />
    <glyph glyph-name="ordfeminine" unicode="&#xaa;" horiz-adv-x="983" 
d="M838 1536h137l-109 -614h-137l16 92q-93 -105 -230 -105q-118 0 -193 78t-75 197q0 92 47 175.5t129.5 136t178.5 52.5q156 0 217 -120zM542 1029q96 0 170 72.5t74 167.5q0 72 -44.5 114.5t-114.5 42.5q-105 0 -175.5 -73.5t-70.5 -164.5q0 -75 44.5 -117t116.5 -42z
" />
    <glyph glyph-name="guillemotleft" unicode="&#xab;" horiz-adv-x="1034" 
d="M317 252l-247 377l373 377h197l-381 -377l242 -377h-184zM740 252l-247 377l373 377h198l-381 -377l242 -377h-185z" />
    <glyph glyph-name="logicalnot" unicode="&#xac;" horiz-adv-x="1694" 
d="M1299 292v524h-1112v190h1301v-714h-189z" />
    <glyph glyph-name="uni00AD" unicode="&#xad;" horiz-adv-x="1018" 
d="M141 451l34 195h717l-34 -195h-717z" />
    <glyph glyph-name="registered" unicode="&#xae;" horiz-adv-x="1737" 
d="M905 1454q150 0 287 -58.5t236 -157.5t157.5 -235.5t58.5 -285.5q0 -150 -58.5 -286t-157.5 -235t-236 -157.5t-287 -58.5q-199 0 -368.5 99t-268.5 268.5t-99 369.5q0 199 99 369t268.5 269t368.5 99zM905 110q167 0 306.5 80.5t220 220t80.5 306.5q0 125 -47.5 237.5
t-128.5 193.5t-193.5 128.5t-237.5 47.5q-166 0 -305.5 -80.5t-220 -220.5t-80.5 -306q0 -167 80.5 -306.5t220 -220t305.5 -80.5zM1215 888q0 -70 -36.5 -126.5t-96.5 -84.5l160 -368h-145l-144 346h-157v-346h-132v815h315q99 0 167.5 -69t68.5 -167zM796 1004v-236h166
q52 0 87.5 34t35.5 84q0 51 -35 84.5t-88 33.5h-166z" />
    <glyph glyph-name="macron" unicode="&#xaf;" horiz-adv-x="954" 
d="M281 1241l24 140h656l-25 -140h-655z" />
    <glyph glyph-name="degree" unicode="&#xb0;" horiz-adv-x="924" 
d="M575 853q-123 0 -209.5 86.5t-86.5 210.5t86.5 210.5t209.5 86.5q124 0 210.5 -86.5t86.5 -210.5t-86.5 -210.5t-210.5 -86.5zM575 984q70 0 117.5 48t47.5 118q0 69 -48 117.5t-117 48.5t-116.5 -48.5t-47.5 -117.5q0 -70 47.5 -118t116.5 -48z" />
    <glyph glyph-name="plusminus" unicode="&#xb1;" horiz-adv-x="1295" 
d="M561 353v396h-394v180h394v395h181v-395h395v-180h-395v-396h-181zM157 1v181h969v-181h-969z" />
    <glyph glyph-name="acute" unicode="&#xb4;" horiz-adv-x="466" 
d="M162 1214l318 348l103 -84l-273 -264h-148z" />
    <glyph glyph-name="uni00B5" unicode="&#xb5;" horiz-adv-x="1326" 
d="M1039 1006h202l-178 -1006h-202l23 132q-67 -72 -153 -112t-177 -40q-127 0 -220 72l-100 -564h-183l268 1518h203l-106 -604q-19 -104 37.5 -173.5t156.5 -69.5q109 0 202 71t120 171z" />
    <glyph glyph-name="paragraph" unicode="&#xb6;" horiz-adv-x="1169" 
d="M361 -307l185 1047h-44q-172 0 -255.5 94.5t-53.5 266.5q27 159 134.5 242t278.5 83h181l-305 -1733h-121zM674 -307l305 1733h123l-305 -1733h-123z" />
    <glyph glyph-name="periodcentered" unicode="&#xb7;" horiz-adv-x="582" 
d="M328 629q-50 0 -80.5 36.5t-21.5 88.5q8 38 40 64.5t71 26.5q47 0 78 -37.5t22 -86.5q-7 -39 -39 -65.5t-70 -26.5z" />
    <glyph glyph-name="cedilla" unicode="&#xb8;" horiz-adv-x="585" 
d="M105 -532q-79 0 -137.5 40t-75.5 101l113 40q13 -31 46 -50.5t69 -19.5q44 0 80.5 30t44.5 76q9 48 -17.5 75t-74.5 27q-46 0 -82 -26l-80 56l155 221h115l-117 -168q34 6 51 6q85 0 131.5 -53.5t32.5 -137.5q-17 -91 -90 -154t-164 -63z" />
    <glyph glyph-name="ordmasculine" unicode="&#xba;" horiz-adv-x="908" 
d="M540 909q-130 0 -213 79.5t-83 200.5q0 141 112.5 250t265.5 109q131 0 214.5 -79.5t83.5 -199.5q0 -96 -53 -179.5t-141 -132t-186 -48.5zM541 1029q95 0 169 73.5t74 165.5q0 68 -46.5 113t-116.5 45q-103 0 -172.5 -75.5t-69.5 -163.5q0 -67 46 -112.5t116 -45.5z" />
    <glyph glyph-name="guillemotright" unicode="&#xbb;" horiz-adv-x="1031" 
d="M12 252l381 377l-241 377h182l249 -377l-375 -377h-196zM435 252l381 377l-242 377h184l249 -377l-375 -377h-197z" />
    <glyph glyph-name="onequarter" unicode="&#xbc;" horiz-adv-x="1726" 
d="M1315 1536h161l-1137 -1536h-163zM281 614l140 782l-234 -158l21 139l244 159h135l-163 -922h-143zM1613 922l-109 -617h100l-20 -110h-100l-34 -195h-138l34 195h-430l19 118l490 609h188zM1365 305l88 497l-388 -497h300z" />
    <glyph glyph-name="onehalf" unicode="&#xbd;" horiz-adv-x="1777" 
d="M1314 1536h161l-1137 -1536h-163zM280 614l140 782l-235 -158l25 139l241 159h135l-163 -922h-143zM1692 649q-19 -122 -142.5 -246.5t-397.5 -287.5h468l-21 -115h-627l17 139q170 113 280.5 196t170 143t84 101.5t31.5 85.5q14 80 -18 113.5t-92 33.5
q-78 0 -130.5 -50.5t-66.5 -123.5l-144 14q22 127 117.5 205.5t223.5 78.5q129 0 198 -79.5t49 -207.5z" />
    <glyph glyph-name="threequarters" unicode="&#xbe;" horiz-adv-x="1931" 
d="M639 1117q53 -32 81.5 -83.5t31 -108t-19.5 -114.5t-63.5 -104.5t-108.5 -75.5t-148 -29q-133 0 -210.5 81t-57.5 198l145 -17q-12 -67 21 -103.5t93 -36.5q103 0 166 80q53 67 42 139q-11 75 -87 97q-25 7 -56 7h-59l19 113h37q89 0 144 75q45 62 34 124q-10 61 -71 70
q-9 2 -20 2q-61 0 -107 -39t-58 -106l-141 18q19 111 102.5 177.5t194.5 66.5q70 0 121.5 -24t77.5 -62t33.5 -86t-6 -95.5t-47 -91.5t-83.5 -72zM1521 1536h160l-1136 -1536h-163zM1819 922l-109 -617h99l-19 -110h-100l-34 -195h-138l34 195h-430l19 118l490 609h188z
M1571 305l88 497l-388 -497h300z" />
    <glyph glyph-name="questiondown" unicode="&#xbf;" horiz-adv-x="1030" 
d="M560 745q-62 0 -99.5 46.5t-26.5 110.5q9 52 51.5 88t93.5 36q64 0 101.5 -46.5t26.5 -110.5q-10 -52 -53 -88t-94 -36zM361 -441q-198 0 -304 122.5t-71 322.5q47 263 287 364q120 36 139 131l14 87h190l-21 -125q-12 -65 -43.5 -111.5t-71.5 -74.5t-112 -63
q-151 -58 -184 -236q-18 -107 31.5 -166.5t146.5 -59.5q108 0 190.5 73t102.5 185q7 45 5 76l196 -38q-2 -44 -9 -90q-32 -177 -166 -287t-320 -110z" />
    <glyph glyph-name="Agrave" unicode="&#xc0;" horiz-adv-x="1392" 
d="M957 1563h-148l-179 263l132 84zM1036 0l-57 322h-626l-171 -322h-237l774 1422h275l275 -1422h-233zM457 517h487l-122 685z" />
    <glyph glyph-name="Aacute" unicode="&#xc1;" horiz-adv-x="1392" 
d="M1224 1826l-271 -263h-149l319 347zM1036 0l-57 322h-626l-171 -322h-237l774 1422h275l275 -1422h-233zM457 517h487l-122 685z" />
    <glyph glyph-name="Acircumflex" unicode="&#xc2;" horiz-adv-x="1392" 
d="M918 1773l-183 -210h-147l271 297h150l167 -297h-148zM1036 0l-57 322h-626l-171 -322h-237l774 1422h275l275 -1422h-233zM457 517h487l-122 685z" />
    <glyph glyph-name="Atilde" unicode="&#xc3;" horiz-adv-x="1392" 
d="M784 1723q-45 0 -78.5 -42.5t-45.5 -110.5h-123q22 121 94 197.5t170 76.5q118 0 171 -113q26 -55 78 -55q45 0 77 41t45 111h124q-22 -120 -92.5 -196.5t-171.5 -76.5q-121 0 -172 113q-25 55 -76 55zM719 1422h275l275 -1422h-233l-57 322h-626l-171 -322h-237z
M457 517h487l-122 685z" />
    <glyph glyph-name="Adieresis" unicode="&#xc4;" horiz-adv-x="1392" 
d="M687 1563q-51 0 -81.5 36.5t-21.5 88.5q10 51 53.5 87.5t93.5 36.5q51 0 81.5 -36.5t20.5 -87.5q-8 -51 -51.5 -88t-94.5 -37zM1079 1563q-51 0 -81 36.5t-22 88.5q10 51 53 87.5t94 36.5t81.5 -36.5t20.5 -87.5q-9 -52 -52 -88.5t-94 -36.5zM1036 0l-57 322h-626
l-171 -322h-237l774 1422h275l275 -1422h-233zM457 517h487l-122 685z" />
    <glyph glyph-name="Aring" unicode="&#xc5;" horiz-adv-x="1392" 
d="M892 1563q-86 0 -140.5 52t-56.5 136q-4 103 71.5 181.5t186.5 78.5q87 0 139.5 -52t54.5 -134q3 -103 -71 -182.5t-184 -79.5zM942 1912q-60 0 -101 -45t-41 -102q0 -45 27.5 -72t75.5 -27q62 0 102.5 42.5t40.5 98.5q0 45 -28 75t-76 30zM1036 0l-57 322h-626
l-171 -322h-237l774 1422h275l275 -1422h-233zM457 517h487l-122 685z" />
    <glyph glyph-name="AE" unicode="&#xc6;" horiz-adv-x="1803" 
d="M-55 0l760 1426h1153l-38 -213h-585l-70 -394h509l-38 -213h-509l-68 -392h585l-38 -214h-825l57 317h-474l-164 -317h-255zM468 522h406l121 691h-171z" />
    <glyph glyph-name="Ccedilla" unicode="&#xc7;" horiz-adv-x="1522" 
d="M743 194q152 0 284 73t211 202l200 -95q-109 -179 -285 -281.5t-383 -110.5l-78 -112q34 6 51 6q85 0 131.5 -53.5t32.5 -137.5q-17 -91 -90 -154t-164 -63q-79 0 -137.5 40t-75.5 101l113 40q13 -31 46 -50.5t69 -19.5q44 0 80.5 30t44.5 76q9 48 -17.5 75t-74.5 27
q-46 0 -82 -26l-80 56l117 167q-245 23 -390 178t-145 406q0 134 37 262.5t110.5 238.5t173.5 193.5t234.5 131.5t286.5 48q226 0 382.5 -109t205.5 -298l-220 -67q-34 127 -134 194.5t-244 67.5q-134 0 -250 -55.5t-193 -146.5t-121 -207.5t-44 -238.5q0 -183 109.5 -285.5
t288.5 -102.5z" />
    <glyph glyph-name="Egrave" unicode="&#xc8;" horiz-adv-x="1090" 
d="M853 1563h-148l-179 263l132 84zM1107 1220h-557l-72 -409h492l-35 -201h-492l-72 -406h557l-36 -204h-789l251 1422h789z" />
    <glyph glyph-name="Eacute" unicode="&#xc9;" horiz-adv-x="1090" 
d="M1120 1826l-271 -263h-149l319 347zM1107 1220h-557l-72 -409h492l-35 -201h-492l-72 -406h557l-36 -204h-789l251 1422h789z" />
    <glyph glyph-name="Ecircumflex" unicode="&#xca;" horiz-adv-x="1090" 
d="M814 1773l-183 -210h-147l271 297h150l167 -297h-148zM1107 1220h-557l-72 -409h492l-35 -201h-492l-72 -406h557l-36 -204h-789l251 1422h789z" />
    <glyph glyph-name="Edieresis" unicode="&#xcb;" horiz-adv-x="1090" 
d="M583 1563q-51 0 -81.5 36.5t-21.5 88.5q10 51 53.5 87.5t93.5 36.5q51 0 81.5 -36.5t20.5 -87.5q-8 -51 -51.5 -88t-94.5 -37zM975 1563q-51 0 -81 36.5t-22 88.5q10 51 53 87.5t94 36.5t81.5 -36.5t20.5 -87.5q-9 -52 -52 -88.5t-94 -36.5zM1107 1220h-557l-72 -409h492
l-35 -201h-492l-72 -406h557l-36 -204h-789l251 1422h789z" />
    <glyph glyph-name="Igrave" unicode="&#xcc;" horiz-adv-x="612" 
d="M418 1563l-179 263l132 84l195 -347h-148zM103 0l251 1422h228l-251 -1422h-228z" />
    <glyph glyph-name="Iacute" unicode="&#xcd;" horiz-adv-x="612" 
d="M413 1563l319 347l101 -84l-271 -263h-149zM103 0l251 1422h228l-251 -1422h-228z" />
    <glyph glyph-name="Icircumflex" unicode="&#xce;" horiz-adv-x="612" 
d="M344 1563h-147l271 297h150l167 -297h-148l-110 210zM103 0l251 1422h228l-251 -1422h-228z" />
    <glyph glyph-name="Idieresis" unicode="&#xcf;" horiz-adv-x="612" 
d="M296 1563q-51 0 -81.5 36.5t-21.5 88.5q10 51 53.5 87.5t93.5 36.5q51 0 81.5 -36.5t20.5 -87.5q-8 -51 -51.5 -88t-94.5 -37zM688 1563q-51 0 -81 36.5t-22 88.5q10 51 53 87.5t94 36.5t81.5 -36.5t20.5 -87.5q-9 -52 -52 -88.5t-94 -36.5zM103 0l251 1422h228
l-251 -1422h-228z" />
    <glyph glyph-name="Eth" unicode="&#xd0;" horiz-adv-x="1440" 
d="M828 1422q275 0 419 -146t144 -397q0 -103 -20 -204.5t-59.5 -201t-105 -184.5t-151.5 -150t-204.5 -102t-257.5 -37h-490l113 640h-163l26 145h163l112 637h474zM604 204q117 0 212 42t157 109.5t104 156.5t60 179.5t18 182.5q0 167 -88 256.5t-268 89.5h-253l-77 -435
h258l-26 -145h-257l-77 -436h237z" />
    <glyph glyph-name="Ntilde" unicode="&#xd1;" horiz-adv-x="1574" 
d="M875 1723q-45 0 -78.5 -42.5t-45.5 -110.5h-123q22 121 94 197.5t170 76.5q118 0 171 -113q26 -55 78 -55q45 0 77 41t45 111h124q-22 -120 -92.5 -196.5t-171.5 -76.5q-121 0 -172 113q-25 55 -76 55zM1317 1422h226l-251 -1422h-249l-519 1102l-195 -1102h-226
l251 1422h247l523 -1097z" />
    <glyph glyph-name="Ograve" unicode="&#xd2;" horiz-adv-x="1621" 
d="M925 1563l-179 263l132 84l195 -347h-148zM734 -19q-277 0 -445 158t-168 429q0 134 37 262.5t110.5 238.5t173.5 193.5t234.5 131.5t286.5 48q275 0 443.5 -158t168.5 -428q0 -168 -60 -325.5t-166.5 -279.5t-267 -196t-347.5 -74zM743 193q135 0 251 56t192.5 147.5
t120 208t43.5 238.5q0 182 -109 284.5t-288 102.5q-134 0 -250 -56t-193.5 -147.5t-121 -207.5t-43.5 -238q0 -183 109.5 -285.5t288.5 -102.5z" />
    <glyph glyph-name="Oacute" unicode="&#xd3;" horiz-adv-x="1621" 
d="M920 1563l319 347l101 -84l-271 -263h-149zM734 -19q-277 0 -445 158t-168 429q0 134 37 262.5t110.5 238.5t173.5 193.5t234.5 131.5t286.5 48q275 0 443.5 -158t168.5 -428q0 -168 -60 -325.5t-166.5 -279.5t-267 -196t-347.5 -74zM743 193q135 0 251 56t192.5 147.5
t120 208t43.5 238.5q0 182 -109 284.5t-288 102.5q-134 0 -250 -56t-193.5 -147.5t-121 -207.5t-43.5 -238q0 -183 109.5 -285.5t288.5 -102.5z" />
    <glyph glyph-name="Ocircumflex" unicode="&#xd4;" horiz-adv-x="1621" 
d="M851 1563h-147l271 297h150l167 -297h-148l-110 210zM734 -19q-277 0 -445 158t-168 429q0 134 37 262.5t110.5 238.5t173.5 193.5t234.5 131.5t286.5 48q275 0 443.5 -158t168.5 -428q0 -168 -60 -325.5t-166.5 -279.5t-267 -196t-347.5 -74zM743 193q135 0 251 56
t192.5 147.5t120 208t43.5 238.5q0 182 -109 284.5t-288 102.5q-134 0 -250 -56t-193.5 -147.5t-121 -207.5t-43.5 -238q0 -183 109.5 -285.5t288.5 -102.5z" />
    <glyph glyph-name="Otilde" unicode="&#xd5;" horiz-adv-x="1621" 
d="M1148 1555q-121 0 -172 113q-25 55 -76 55q-45 0 -78.5 -42.5t-45.5 -110.5h-123q22 121 94 197.5t170 76.5q118 0 171 -113q26 -55 78 -55q45 0 77 41t45 111h124q-22 -120 -92.5 -196.5t-171.5 -76.5zM734 -19q-277 0 -445 158t-168 429q0 134 37 262.5t110.5 238.5
t173.5 193.5t234.5 131.5t286.5 48q275 0 443.5 -158t168.5 -428q0 -168 -60 -325.5t-166.5 -279.5t-267 -196t-347.5 -74zM743 193q135 0 251 56t192.5 147.5t120 208t43.5 238.5q0 182 -109 284.5t-288 102.5q-134 0 -250 -56t-193.5 -147.5t-121 -207.5t-43.5 -238
q0 -183 109.5 -285.5t288.5 -102.5z" />
    <glyph glyph-name="Odieresis" unicode="&#xd6;" horiz-adv-x="1621" 
d="M803 1563q-51 0 -81.5 36.5t-21.5 88.5q10 51 53.5 87.5t93.5 36.5q51 0 81.5 -36.5t20.5 -87.5q-8 -51 -51.5 -88t-94.5 -37zM1195 1563q-51 0 -81 36.5t-22 88.5q10 51 53 87.5t94 36.5t81.5 -36.5t20.5 -87.5q-9 -52 -52 -88.5t-94 -36.5zM734 -19q-277 0 -445 158
t-168 429q0 134 37 262.5t110.5 238.5t173.5 193.5t234.5 131.5t286.5 48q275 0 443.5 -158t168.5 -428q0 -168 -60 -325.5t-166.5 -279.5t-267 -196t-347.5 -74zM743 193q135 0 251 56t192.5 147.5t120 208t43.5 238.5q0 182 -109 284.5t-288 102.5q-134 0 -250 -56
t-193.5 -147.5t-121 -207.5t-43.5 -238q0 -183 109.5 -285.5t288.5 -102.5z" />
    <glyph glyph-name="multiply" unicode="&#xd7;" horiz-adv-x="1085" 
d="M297 273l-128 129l275 276l-275 275l128 128l276 -274l274 273l129 -127l-276 -275l276 -276l-129 -128l-274 276z" />
    <glyph glyph-name="Oslash" unicode="&#xd8;" horiz-adv-x="1621" 
d="M1352 1329q107 -76 165 -197t58 -276q0 -168 -60 -325.5t-166.5 -279.5t-267 -196t-347.5 -74q-159 0 -283 53l-103 -147l-104 62l101 144q-107 77 -165.5 198t-58.5 277q0 134 37 262.5t110.5 238.5t173.5 193.5t234.5 131.5t286.5 48q159 0 283 -54l103 149l104 -63z
M345 581q0 -198 128 -302l644 924q-74 27 -164 27q-134 0 -250 -56t-193.5 -147.5t-121 -207.5t-43.5 -238zM743 193q135 0 251 56t192.5 147.5t120 208t43.5 238.5q0 196 -127 301l-643 -924q73 -27 163 -27z" />
    <glyph glyph-name="Ugrave" unicode="&#xd9;" horiz-adv-x="1397" 
d="M809 1563l-179 263l132 84l195 -347h-148zM618 -19q-211 0 -339.5 105.5t-128.5 297.5q0 55 10 106l165 932h227l-161 -916q-9 -50 -9 -90q0 -117 65.5 -174.5t177.5 -57.5q142 0 247 86.5t135 250.5l159 901h228l-167 -948q-22 -121 -79 -216.5t-138.5 -155t-181 -90.5
t-210.5 -31z" />
    <glyph glyph-name="Uacute" unicode="&#xda;" horiz-adv-x="1397" 
d="M804 1563l319 347l101 -84l-271 -263h-149zM618 -19q-211 0 -339.5 105.5t-128.5 297.5q0 55 10 106l165 932h227l-161 -916q-9 -50 -9 -90q0 -117 65.5 -174.5t177.5 -57.5q142 0 247 86.5t135 250.5l159 901h228l-167 -948q-22 -121 -79 -216.5t-138.5 -155t-181 -90.5
t-210.5 -31z" />
    <glyph glyph-name="Ucircumflex" unicode="&#xdb;" horiz-adv-x="1397" 
d="M735 1563h-147l271 297h150l167 -297h-148l-110 210zM618 -19q-211 0 -339.5 105.5t-128.5 297.5q0 55 10 106l165 932h227l-161 -916q-9 -50 -9 -90q0 -117 65.5 -174.5t177.5 -57.5q142 0 247 86.5t135 250.5l159 901h228l-167 -948q-22 -121 -79 -216.5t-138.5 -155
t-181 -90.5t-210.5 -31z" />
    <glyph glyph-name="Udieresis" unicode="&#xdc;" horiz-adv-x="1397" 
d="M687 1563q-51 0 -81.5 36.5t-21.5 88.5q10 51 53.5 87.5t93.5 36.5q51 0 81.5 -36.5t20.5 -87.5q-8 -51 -51.5 -88t-94.5 -37zM1079 1563q-51 0 -81 36.5t-22 88.5q10 51 53 87.5t94 36.5t81.5 -36.5t20.5 -87.5q-9 -52 -52 -88.5t-94 -36.5zM618 -19
q-211 0 -339.5 105.5t-128.5 297.5q0 55 10 106l165 932h227l-161 -916q-9 -50 -9 -90q0 -117 65.5 -174.5t177.5 -57.5q142 0 247 86.5t135 250.5l159 901h228l-167 -948q-22 -121 -79 -216.5t-138.5 -155t-181 -90.5t-210.5 -31z" />
    <glyph glyph-name="Yacute" unicode="&#xdd;" horiz-adv-x="1205" 
d="M1128 1826l-271 -263h-149l319 347zM1348 1422l-604 -748l-118 -674h-230l121 682l-336 740h245l232 -542l424 542h266z" />
    <glyph glyph-name="Thorn" unicode="&#xde;" horiz-adv-x="1204" 
d="M769 1318q236 0 337.5 -93.5t101.5 -273.5q0 -72 -20 -143t-64 -138t-107.5 -118t-157 -81.5t-204.5 -30.5h-242l-78 -440h-232l233 1318l38 213h231l-37 -213h201zM682 648q82 0 145 25t98 66.5t52.5 89t17.5 99.5q0 89 -52 135.5t-190 46.5h-221l-82 -462h232z" />
    <glyph glyph-name="germandbls" unicode="&#xdf;" horiz-adv-x="1232" 
d="M63 0l178 1005q22 124 64 220t95 157.5t121 101.5t137.5 56t147.5 16q187 0 297.5 -91.5t110.5 -237.5q0 -157 -128 -274q-4 -4 -20 -18.5t-21 -19.5l-18 -18t-17.5 -19.5t-13 -18.5t-11.5 -21.5t-6 -22t-3 -24.5q0 -28 18.5 -53.5t45 -49.5t53.5 -53t45.5 -78.5
t18.5 -111.5q0 -194 -126 -319.5t-320 -125.5h-204l32 175h124q114 0 191 80t77 194q0 44 -17.5 79.5t-42.5 60l-50 49t-42.5 60t-17.5 80.5q0 41 7 72.5t27 61t31 43t46.5 45.5t45.5 42q80 80 80 180q0 69 -50 109.5t-141 40.5q-274 0 -335 -343l-181 -1029h-228z" />
    <glyph glyph-name="agrave" unicode="&#xe0;" horiz-adv-x="1253" 
d="M817 1161h-148l-179 264l131 84zM969 1001h218l-177 -1001h-200l16 162q-60 -87 -155.5 -136t-202.5 -49q-179 0 -292 114.5t-113 309.5q0 114 41 225t112.5 198.5t178 141.5t227.5 54q117 0 201.5 -52t115.5 -141zM528 164q82 0 154.5 38.5t120 98t74.5 131t27 139.5
q0 115 -66.5 190t-181.5 75q-108 0 -195 -63t-131.5 -157t-44.5 -194q0 -119 66.5 -188.5t176.5 -69.5z" />
    <glyph glyph-name="aacute" unicode="&#xe1;" horiz-adv-x="1253" 
d="M1086 1425l-273 -264h-148l318 348zM969 1001h218l-177 -1001h-200l16 162q-60 -87 -155.5 -136t-202.5 -49q-179 0 -292 114.5t-113 309.5q0 114 41 225t112.5 198.5t178 141.5t227.5 54q117 0 201.5 -52t115.5 -141zM528 164q82 0 154.5 38.5t120 98t74.5 131t27 139.5
q0 115 -66.5 190t-181.5 75q-108 0 -195 -63t-131.5 -157t-44.5 -194q0 -119 66.5 -188.5t176.5 -69.5z" />
    <glyph glyph-name="acircumflex" unicode="&#xe2;" horiz-adv-x="1253" 
d="M784 1396l-183 -210h-148l272 297h150l167 -297h-149zM969 1001h218l-177 -1001h-200l16 162q-60 -87 -155.5 -136t-202.5 -49q-179 0 -292 114.5t-113 309.5q0 114 41 225t112.5 198.5t178 141.5t227.5 54q117 0 201.5 -52t115.5 -141zM528 164q82 0 154.5 38.5t120 98
t74.5 131t27 139.5q0 115 -66.5 190t-181.5 75q-108 0 -195 -63t-131.5 -157t-44.5 -194q0 -119 66.5 -188.5t176.5 -69.5z" />
    <glyph glyph-name="atilde" unicode="&#xe3;" horiz-adv-x="1253" 
d="M660 1297q-38 0 -65 -36t-37 -95h-117q19 109 83 177.5t152 68.5q107 0 150 -100q20 -44 64 -44q37 0 62.5 34.5t36.5 95.5h118q-19 -107 -82.5 -176t-151.5 -69q-107 0 -153 99q-20 45 -60 45zM969 1001h218l-177 -1001h-200l16 162q-60 -87 -155.5 -136t-202.5 -49
q-179 0 -292 114.5t-113 309.5q0 114 41 225t112.5 198.5t178 141.5t227.5 54q117 0 201.5 -52t115.5 -141zM528 164q82 0 154.5 38.5t120 98t74.5 131t27 139.5q0 115 -66.5 190t-181.5 75q-108 0 -195 -63t-131.5 -157t-44.5 -194q0 -119 66.5 -188.5t176.5 -69.5z" />
    <glyph glyph-name="adieresis" unicode="&#xe4;" horiz-adv-x="1253" 
d="M563 1222q-59 0 -96.5 41.5t-30.5 99.5q6 58 52.5 99t105.5 41q57 0 93.5 -41t31.5 -99q-6 -58 -52.5 -99.5t-103.5 -41.5zM966 1222q-59 0 -96.5 41.5t-30.5 99.5q6 58 52.5 99t104.5 41q57 0 94 -41t31 -99t-52 -99.5t-103 -41.5zM969 1001h218l-177 -1001h-200l16 162
q-60 -87 -155.5 -136t-202.5 -49q-179 0 -292 114.5t-113 309.5q0 114 41 225t112.5 198.5t178 141.5t227.5 54q117 0 201.5 -52t115.5 -141zM528 164q82 0 154.5 38.5t120 98t74.5 131t27 139.5q0 115 -66.5 190t-181.5 75q-108 0 -195 -63t-131.5 -157t-44.5 -194
q0 -119 66.5 -188.5t176.5 -69.5z" />
    <glyph glyph-name="aring" unicode="&#xe5;" horiz-adv-x="1253" 
d="M753 1129q-93 0 -152.5 66t-50.5 159q11 92 84 157.5t167 65.5q92 0 150 -65.5t47 -157.5q-9 -92 -81.5 -158.5t-163.5 -66.5zM655 1354q-5 -54 26 -88t83 -34t90 34.5t43 87.5q5 51 -26 87.5t-81 36.5q-51 0 -90 -36.5t-45 -87.5zM969 1001h218l-177 -1001h-200l16 162
q-60 -87 -155.5 -136t-202.5 -49q-179 0 -292 114.5t-113 309.5q0 114 41 225t112.5 198.5t178 141.5t227.5 54q117 0 201.5 -52t115.5 -141zM528 164q82 0 154.5 38.5t120 98t74.5 131t27 139.5q0 115 -66.5 190t-181.5 75q-108 0 -195 -63t-131.5 -157t-44.5 -194
q0 -119 66.5 -188.5t176.5 -69.5z" />
    <glyph glyph-name="ae" unicode="&#xe6;" horiz-adv-x="1751" 
d="M1274 1026q192 0 305 -100t113 -290q0 -64 -12 -124l-13 -55h-766q-5 -38 -5 -65q0 -111 64 -168.5t168 -57.5q87 0 164 44.5t125 120.5l206 -50q-78 -146 -209.5 -223t-292.5 -77q-129 0 -226 45t-153 130h-14q-181 -175 -414 -175q-129 0 -208 56.5t-79 170.5
q0 74 23.5 131.5t60 95t96.5 66t118.5 45t138.5 31.5l157 27q61 12 90.5 47.5t29.5 86.5q0 121 -157 121q-93 0 -163.5 -46t-95.5 -138l-200 52q52 153 169.5 225t301.5 72q232 0 312 -120q155 122 366 122zM1271 860q-109 0 -196.5 -61t-133.5 -179h532q3 24 3 44
q0 97 -53.5 146.5t-151.5 49.5zM387 153q78 0 155.5 45t138.5 122q-5 42 -5 78q0 35 3 70l-204 -43q-219 -39 -219 -176q0 -49 35.5 -72.5t95.5 -23.5z" />
    <glyph glyph-name="ccedilla" unicode="&#xe7;" horiz-adv-x="1115" 
d="M508 160q102 0 186.5 53t130.5 149l200 -40q-68 -157 -200 -245.5t-295 -94.5l-78 -112q34 6 51 6q85 0 131.5 -53.5t32.5 -137.5q-17 -91 -90 -154t-164 -63q-79 0 -137.5 40t-75.5 101l113 40q13 -31 46 -50.5t69 -19.5q44 0 80.5 30t44.5 76q9 48 -17.5 75t-74.5 27
q-46 0 -82 -26l-80 56l120 171q-165 25 -261.5 136.5t-96.5 282.5q0 116 42.5 226t118 196t190 138.5t248.5 52.5q183 0 296.5 -94t126.5 -258l-203 -14q-12 94 -71 142t-153 48q-85 0 -157.5 -40t-119.5 -104t-73.5 -141.5t-26.5 -154.5q0 -113 62 -178.5t167 -65.5z" />
    <glyph glyph-name="egrave" unicode="&#xe8;" horiz-adv-x="1128" 
d="M776 1160h-148l-179 264l131 84zM656 1021q190 0 301.5 -99t111.5 -288q0 -62 -11 -123l-11 -49h-770q-4 -32 -4 -72q0 -114 65.5 -173t171.5 -59q88 0 166 45t129 123l194 -48q-76 -141 -206 -219t-284 -78q-206 0 -325 109t-119 304q0 121 40 233t113.5 200t187.5 141
t250 53zM654 862q-124 0 -210.5 -68t-130.5 -181h548q3 24 3 46q0 101 -56.5 152t-153.5 51z" />
    <glyph glyph-name="eacute" unicode="&#xe9;" horiz-adv-x="1128" 
d="M1045 1424l-273 -264h-148l318 348zM656 1021q190 0 301.5 -99t111.5 -288q0 -62 -11 -123l-11 -49h-770q-4 -32 -4 -72q0 -114 65.5 -173t171.5 -59q88 0 166 45t129 123l194 -48q-76 -141 -206 -219t-284 -78q-206 0 -325 109t-119 304q0 121 40 233t113.5 200
t187.5 141t250 53zM654 862q-124 0 -210.5 -68t-130.5 -181h548q3 24 3 46q0 101 -56.5 152t-153.5 51z" />
    <glyph glyph-name="ecircumflex" unicode="&#xea;" horiz-adv-x="1128" 
d="M743 1395l-183 -210h-148l272 297h150l167 -297h-149zM656 1021q190 0 301.5 -99t111.5 -288q0 -62 -11 -123l-11 -49h-770q-4 -32 -4 -72q0 -114 65.5 -173t171.5 -59q88 0 166 45t129 123l194 -48q-76 -141 -206 -219t-284 -78q-206 0 -325 109t-119 304q0 121 40 233
t113.5 200t187.5 141t250 53zM654 862q-124 0 -210.5 -68t-130.5 -181h548q3 24 3 46q0 101 -56.5 152t-153.5 51z" />
    <glyph glyph-name="edieresis" unicode="&#xeb;" horiz-adv-x="1128" 
d="M522 1221q-59 0 -96.5 41.5t-30.5 99.5q6 58 52.5 99t105.5 41q57 0 93.5 -41t31.5 -99q-6 -58 -52.5 -99.5t-103.5 -41.5zM955 1502q57 0 94 -41t31 -99t-52 -99.5t-103 -41.5q-59 0 -96.5 41.5t-30.5 99.5q6 58 52.5 99t104.5 41zM656 1021q190 0 301.5 -99t111.5 -288
q0 -62 -11 -123l-11 -49h-770q-4 -32 -4 -72q0 -114 65.5 -173t171.5 -59q88 0 166 45t129 123l194 -48q-76 -141 -206 -219t-284 -78q-206 0 -325 109t-119 304q0 121 40 233t113.5 200t187.5 141t250 53zM654 862q-124 0 -210.5 -68t-130.5 -181h548q3 24 3 46
q0 101 -56.5 152t-153.5 51z" />
    <glyph glyph-name="igrave" unicode="&#xec;" horiz-adv-x="539" 
d="M312 1161l-179 264l131 84l196 -348h-148zM65 0l178 1006h231l-178 -1006h-231z" />
    <glyph glyph-name="iacute" unicode="&#xed;" horiz-adv-x="539" 
d="M308 1161l318 348l103 -84l-273 -264h-148zM65 0l178 1006h231l-178 -1006h-231z" />
    <glyph glyph-name="icircumflex" unicode="&#xee;" horiz-adv-x="539" 
d="M244 1186h-148l272 297h150l167 -297h-149l-109 210zM65 0l178 1006h231l-178 -1006h-231z" />
    <glyph glyph-name="idieresis" unicode="&#xef;" horiz-adv-x="539" 
d="M206 1222q-59 0 -96.5 41.5t-30.5 99.5q6 58 52.5 99t105.5 41q57 0 93.5 -41t31.5 -99q-6 -58 -52.5 -99.5t-103.5 -41.5zM609 1222q-59 0 -96.5 41.5t-30.5 99.5q6 58 52.5 99t104.5 41q57 0 94 -41t31 -99t-52 -99.5t-103 -41.5zM65 0l178 1006h231l-178 -1006h-231z
" />
    <glyph glyph-name="eth" unicode="&#xf0;" horiz-adv-x="1166" 
d="M1025 851q71 -136 71 -294q0 -114 -41 -218t-114.5 -183.5t-184.5 -126.5t-242 -47q-210 0 -330.5 117t-120.5 313q0 160 74.5 300.5t199.5 223.5t266 83q50 0 100 -13l-128 225l-264 -65l-7 77l231 57l-134 236h259l97 -182l254 63l7 -77l-224 -55zM530 190
q70 0 129.5 24t99.5 63.5t68.5 90t41.5 103t13 103.5q0 111 -63.5 181t-171.5 70q-86 0 -156.5 -37.5t-112 -96.5t-64 -127t-22.5 -135q0 -110 65.5 -174.5t172.5 -64.5z" />
    <glyph glyph-name="ntilde" unicode="&#xf1;" horiz-adv-x="1140" 
d="M599 1292q-38 0 -65 -36t-37 -95h-117q19 109 83 177.5t152 68.5q107 0 150 -100q20 -44 64 -44q37 0 62.5 34.5t36.5 95.5h118q-19 -107 -82.5 -176t-151.5 -69q-107 0 -153 99q-20 45 -60 45zM758 1020q132 0 208.5 -71t76.5 -198q0 -27 -8 -85l-119 -666h-219l115 643
q5 35 5 55q0 143 -155 143q-88 0 -164 -57.5t-106 -168.5l-109 -615h-218l177 1001h218l-23 -133q128 152 321 152z" />
    <glyph glyph-name="ograve" unicode="&#xf2;" horiz-adv-x="1189" 
d="M634 1155l-179 264l131 84l196 -348h-148zM516 -19q-204 0 -328.5 113t-124.5 308q0 120 42.5 231t118.5 197.5t192.5 138t254.5 51.5q206 0 329.5 -113t123.5 -308q0 -120 -42.5 -231t-119 -197t-193 -138t-253.5 -52zM521 159q87 0 161.5 38.5t122.5 101t75 138
t27 152.5q0 116 -66.5 185.5t-178.5 69.5q-86 0 -160 -39.5t-121 -102t-73 -138.5t-26 -151q0 -118 64.5 -186t174.5 -68z" />
    <glyph glyph-name="oacute" unicode="&#xf3;" horiz-adv-x="1189" 
d="M630 1155l318 348l103 -84l-273 -264h-148zM516 -19q-204 0 -328.5 113t-124.5 308q0 120 42.5 231t118.5 197.5t192.5 138t254.5 51.5q206 0 329.5 -113t123.5 -308q0 -120 -42.5 -231t-119 -197t-193 -138t-253.5 -52zM521 159q87 0 161.5 38.5t122.5 101t75 138
t27 152.5q0 116 -66.5 185.5t-178.5 69.5q-86 0 -160 -39.5t-121 -102t-73 -138.5t-26 -151q0 -118 64.5 -186t174.5 -68z" />
    <glyph glyph-name="ocircumflex" unicode="&#xf4;" horiz-adv-x="1189" 
d="M566 1180h-148l272 297h150l167 -297h-149l-109 210zM516 -19q-204 0 -328.5 113t-124.5 308q0 120 42.5 231t118.5 197.5t192.5 138t254.5 51.5q206 0 329.5 -113t123.5 -308q0 -120 -42.5 -231t-119 -197t-193 -138t-253.5 -52zM521 159q87 0 161.5 38.5t122.5 101
t75 138t27 152.5q0 116 -66.5 185.5t-178.5 69.5q-86 0 -160 -39.5t-121 -102t-73 -138.5t-26 -151q0 -118 64.5 -186t174.5 -68z" />
    <glyph glyph-name="otilde" unicode="&#xf5;" horiz-adv-x="1189" 
d="M838 1147q-107 0 -153 99q-20 45 -60 45q-38 0 -65 -36t-37 -95h-117q19 109 83 177.5t152 68.5q107 0 150 -100q20 -44 64 -44q37 0 62.5 34.5t36.5 95.5h118q-19 -107 -82.5 -176t-151.5 -69zM516 -19q-204 0 -328.5 113t-124.5 308q0 120 42.5 231t118.5 197.5
t192.5 138t254.5 51.5q206 0 329.5 -113t123.5 -308q0 -120 -42.5 -231t-119 -197t-193 -138t-253.5 -52zM521 159q87 0 161.5 38.5t122.5 101t75 138t27 152.5q0 116 -66.5 185.5t-178.5 69.5q-86 0 -160 -39.5t-121 -102t-73 -138.5t-26 -151q0 -118 64.5 -186t174.5 -68z
" />
    <glyph glyph-name="odieresis" unicode="&#xf6;" horiz-adv-x="1189" 
d="M528 1216q-59 0 -96.5 41.5t-30.5 99.5q6 58 52.5 99t105.5 41q57 0 93.5 -41t31.5 -99q-6 -58 -52.5 -99.5t-103.5 -41.5zM931 1216q-59 0 -96.5 41.5t-30.5 99.5q6 58 52.5 99t104.5 41q57 0 94 -41t31 -99t-52 -99.5t-103 -41.5zM516 -19q-204 0 -328.5 113
t-124.5 308q0 120 42.5 231t118.5 197.5t192.5 138t254.5 51.5q206 0 329.5 -113t123.5 -308q0 -120 -42.5 -231t-119 -197t-193 -138t-253.5 -52zM521 159q87 0 161.5 38.5t122.5 101t75 138t27 152.5q0 116 -66.5 185.5t-178.5 69.5q-86 0 -160 -39.5t-121 -102
t-73 -138.5t-26 -151q0 -118 64.5 -186t174.5 -68z" />
    <glyph glyph-name="divide" unicode="&#xf7;" horiz-adv-x="1046" 
d="M549 932q-53 0 -91 37.5t-38 92.5q0 51 39 90.5t90 39.5q52 0 91.5 -39.5t39.5 -90.5q0 -55 -39 -92.5t-92 -37.5zM143 601v180h824v-180h-824zM549 190q-53 0 -91 38t-38 94q0 51 38.5 90t90.5 39t91.5 -39t39.5 -90q0 -55 -39 -93.5t-92 -38.5z" />
    <glyph glyph-name="oslash" unicode="&#xf8;" horiz-adv-x="1189" 
d="M966 935q158 -114 158 -336q0 -120 -42.5 -231t-119 -197t-193 -138t-253.5 -52q-106 0 -193 32l-85 -122l-100 60l81 117q-156 115 -156 334q0 120 42.5 231t118.5 197.5t192.5 138t254.5 51.5q103 0 191 -31l85 122l100 -60zM282 413q0 -109 56 -176l413 593
q-42 14 -89 14q-86 0 -160 -39.5t-121 -102t-73 -138.5t-26 -151zM521 159q87 0 161.5 38.5t122.5 101t75 138t27 152.5q0 109 -59 177l-414 -594q38 -13 87 -13z" />
    <glyph glyph-name="ugrave" unicode="&#xf9;" horiz-adv-x="1140" 
d="M763 1156h-148l-179 264l131 84zM856 1001h218l-177 -1001h-207l19 142q-62 -76 -145.5 -118.5t-180.5 -42.5q-134 0 -211 71t-77 199q0 36 8 84l119 666h218l-110 -624q-6 -36 -6 -63q0 -76 41 -112t109 -36q104 0 180 65t97 180h1z" />
    <glyph glyph-name="uacute" unicode="&#xfa;" horiz-adv-x="1140" 
d="M1032 1420l-273 -264h-148l318 348zM856 1001h218l-177 -1001h-207l19 142q-62 -76 -145.5 -118.5t-180.5 -42.5q-134 0 -211 71t-77 199q0 36 8 84l119 666h218l-110 -624q-6 -36 -6 -63q0 -76 41 -112t109 -36q104 0 180 65t97 180h1z" />
    <glyph glyph-name="ucircumflex" unicode="&#xfb;" horiz-adv-x="1140" 
d="M730 1391l-183 -210h-148l272 297h150l167 -297h-149zM856 1001h218l-177 -1001h-207l19 142q-62 -76 -145.5 -118.5t-180.5 -42.5q-134 0 -211 71t-77 199q0 36 8 84l119 666h218l-110 -624q-6 -36 -6 -63q0 -76 41 -112t109 -36q104 0 180 65t97 180h1z" />
    <glyph glyph-name="udieresis" unicode="&#xfc;" horiz-adv-x="1140" 
d="M509 1217q-59 0 -96.5 41.5t-30.5 99.5q6 58 52.5 99t105.5 41q57 0 93.5 -41t31.5 -99q-6 -58 -52.5 -99.5t-103.5 -41.5zM912 1217q-59 0 -96.5 41.5t-30.5 99.5q6 58 52.5 99t104.5 41q57 0 94 -41t31 -99t-52 -99.5t-103 -41.5zM856 1001h218l-177 -1001h-207l19 142
q-62 -76 -145.5 -118.5t-180.5 -42.5q-134 0 -211 71t-77 199q0 36 8 84l119 666h218l-110 -624q-6 -36 -6 -63q0 -76 41 -112t109 -36q104 0 180 65t97 180h1z" />
    <glyph glyph-name="yacute" unicode="&#xfd;" horiz-adv-x="1023" 
d="M968 1420l-273 -264h-148l318 348zM870 1001h232l-855 -1472h-229l304 513l-225 959h236l135 -726z" />
    <glyph glyph-name="thorn" unicode="&#xfe;" horiz-adv-x="1263" 
d="M805 1025q175 0 284.5 -109.5t109.5 -297.5q0 -120 -42.5 -235t-116.5 -205.5t-184 -145.5t-236 -55q-108 0 -188 46.5t-112 127.5l-114 -649h-231l359 2034h230l-120 -684q60 81 156.5 127t204.5 46zM604 172q107 0 192 61.5t127.5 153t42.5 190.5q0 117 -68 185
t-177 68q-80 0 -150 -36.5t-116 -94t-72 -128t-26 -139.5q0 -117 68.5 -188.5t178.5 -71.5z" />
    <glyph glyph-name="ydieresis" unicode="&#xff;" horiz-adv-x="1023" 
d="M445 1217q-59 0 -96.5 41.5t-30.5 99.5q6 58 52.5 99t105.5 41q57 0 93.5 -41t31.5 -99q-6 -58 -52.5 -99.5t-103.5 -41.5zM848 1217q-59 0 -96.5 41.5t-30.5 99.5q6 58 52.5 99t104.5 41q57 0 94 -41t31 -99t-52 -99.5t-103 -41.5zM870 1001h232l-855 -1472h-229
l304 513l-225 959h236l135 -726z" />
    <glyph glyph-name="Amacron" unicode="&#x100;" horiz-adv-x="1392" 
d="M1235 1703l-25 -140h-655l24 140h656zM1036 0l-57 322h-626l-171 -322h-237l774 1422h275l275 -1422h-233zM457 517h487l-122 685z" />
    <glyph glyph-name="amacron" unicode="&#x101;" horiz-adv-x="1253" 
d="M1102 1328l-25 -140h-655l24 140h656zM969 1001h218l-177 -1001h-200l16 162q-60 -87 -155.5 -136t-202.5 -49q-179 0 -292 114.5t-113 309.5q0 114 41 225t112.5 198.5t178 141.5t227.5 54q117 0 201.5 -52t115.5 -141zM528 164q82 0 154.5 38.5t120 98t74.5 131
t27 139.5q0 115 -66.5 190t-181.5 75q-108 0 -195 -63t-131.5 -157t-44.5 -194q0 -119 66.5 -188.5t176.5 -69.5z" />
    <glyph glyph-name="Abreve" unicode="&#x102;" horiz-adv-x="1392" 
d="M882 1563q-163 0 -245 68.5t-56 213.5h136q-15 -85 35 -127.5t150 -42.5q101 0 166.5 42t80.5 128h136q-27 -146 -133 -214t-270 -68zM719 1422h275l275 -1422h-233l-57 322h-626l-171 -322h-237zM457 517h487l-122 685z" />
    <glyph glyph-name="abreve" unicode="&#x103;" horiz-adv-x="1253" 
d="M740 1149q-158 0 -239.5 88.5t-53.5 245.5h137q-17 -97 32 -159t144 -62q96 0 167.5 62t88.5 159h136q-28 -157 -140.5 -245.5t-271.5 -88.5zM969 1001h218l-177 -1001h-200l16 162q-60 -87 -155.5 -136t-202.5 -49q-179 0 -292 114.5t-113 309.5q0 114 41 225
t112.5 198.5t178 141.5t227.5 54q117 0 201.5 -52t115.5 -141zM528 164q82 0 154.5 38.5t120 98t74.5 131t27 139.5q0 115 -66.5 190t-181.5 75q-108 0 -195 -63t-131.5 -157t-44.5 -194q0 -119 66.5 -188.5t176.5 -69.5z" />
    <glyph glyph-name="Aogonek" unicode="&#x104;" horiz-adv-x="1392" 
d="M1060 -224q-4 -20 11 -29.5t49 -9.5q61 0 109 35l-28 -155q-62 -23 -129 -23q-86 0 -130.5 26.5t-36.5 75.5q19 102 260 304h-129l-57 322h-626l-171 -322h-237l774 1422h275l275 -1422q-198 -159 -209 -224zM457 517h487l-122 685z" />
    <glyph glyph-name="aogonek" unicode="&#x105;" horiz-adv-x="1253" 
d="M1010 0q-198 -159 -209 -224q-4 -20 11 -29.5t49 -9.5q61 0 109 35l-28 -155q-62 -23 -129 -23q-86 0 -130.5 26.5t-36.5 75.5q19 102 260 304h-96l16 162q-60 -87 -155.5 -136t-202.5 -49q-179 0 -292 114.5t-113 309.5q0 114 41 225t112.5 198.5t178 141.5t227.5 54
q117 0 201.5 -52t115.5 -141l30 174h218zM528 164q82 0 154.5 38.5t120 98t74.5 131t27 139.5q0 115 -66.5 190t-181.5 75q-108 0 -195 -63t-131.5 -157t-44.5 -194q0 -119 66.5 -188.5t176.5 -69.5z" />
    <glyph glyph-name="Cacute" unicode="&#x106;" horiz-adv-x="1522" 
d="M921 1563l319 347l101 -84l-271 -263h-149zM734 -19q-277 0 -445 158t-168 429q0 134 37 262.5t110.5 238.5t173.5 193.5t234.5 131.5t286.5 48q226 0 382.5 -109t205.5 -298l-220 -67q-34 127 -134 194.5t-244 67.5q-134 0 -250 -55.5t-193 -146.5t-121 -207.5
t-44 -238.5q0 -183 109.5 -285.5t288.5 -102.5q152 0 284 73t211 202l200 -95q-113 -187 -299.5 -290t-404.5 -103z" />
    <glyph glyph-name="cacute" unicode="&#x107;" horiz-adv-x="1115" 
d="M611 1156l318 348l103 -84l-273 -264h-148zM507 -18q-202 0 -324 115.5t-122 309.5q0 116 42.5 226t118 196t190 138.5t248.5 52.5q183 0 296.5 -94t126.5 -258l-203 -14q-12 94 -71 142t-153 48q-85 0 -157.5 -40t-119.5 -104t-73.5 -141.5t-26.5 -154.5
q0 -113 62 -178.5t167 -65.5q102 0 186.5 53t130.5 149l200 -40q-70 -163 -209 -251.5t-309 -88.5z" />
    <glyph glyph-name="Cdotaccent" unicode="&#x10a;" horiz-adv-x="1522" 
d="M1000 1563q-58 0 -92.5 41.5t-24.5 99.5t59.5 99t108.5 41q57 0 91 -41t23 -99q-9 -58 -58 -99.5t-107 -41.5zM734 -19q-277 0 -445 158t-168 429q0 134 37 262.5t110.5 238.5t173.5 193.5t234.5 131.5t286.5 48q226 0 382.5 -109t205.5 -298l-220 -67
q-34 127 -134 194.5t-244 67.5q-134 0 -250 -55.5t-193 -146.5t-121 -207.5t-44 -238.5q0 -183 109.5 -285.5t288.5 -102.5q152 0 284 73t211 202l200 -95q-113 -187 -299.5 -290t-404.5 -103z" />
    <glyph glyph-name="cdotaccent" unicode="&#x10b;" horiz-adv-x="1115" 
d="M710 1217q-58 0 -95 41t-32 100q6 58 52.5 99t105.5 41q57 0 94.5 -41t30.5 -99q-6 -58 -52.5 -99.5t-103.5 -41.5zM507 -18q-202 0 -324 115.5t-122 309.5q0 116 42.5 226t118 196t190 138.5t248.5 52.5q183 0 296.5 -94t126.5 -258l-203 -14q-12 94 -71 142t-153 48
q-85 0 -157.5 -40t-119.5 -104t-73.5 -141.5t-26.5 -154.5q0 -113 62 -178.5t167 -65.5q102 0 186.5 53t130.5 149l200 -40q-70 -163 -209 -251.5t-309 -88.5z" />
    <glyph glyph-name="Ccaron" unicode="&#x10c;" horiz-adv-x="1522" 
d="M924 1563l-167 297h147l110 -211l183 211h149l-272 -297h-150zM734 -19q-277 0 -445 158t-168 429q0 134 37 262.5t110.5 238.5t173.5 193.5t234.5 131.5t286.5 48q226 0 382.5 -109t205.5 -298l-220 -67q-34 127 -134 194.5t-244 67.5q-134 0 -250 -55.5t-193 -146.5
t-121 -207.5t-44 -238.5q0 -183 109.5 -285.5t288.5 -102.5q152 0 284 73t211 202l200 -95q-113 -187 -299.5 -290t-404.5 -103z" />
    <glyph glyph-name="ccaron" unicode="&#x10d;" horiz-adv-x="1115" 
d="M618 1181l-167 297h148l109 -211l184 211h148l-271 -297h-151zM507 -18q-202 0 -324 115.5t-122 309.5q0 116 42.5 226t118 196t190 138.5t248.5 52.5q183 0 296.5 -94t126.5 -258l-203 -14q-12 94 -71 142t-153 48q-85 0 -157.5 -40t-119.5 -104t-73.5 -141.5
t-26.5 -154.5q0 -113 62 -178.5t167 -65.5q102 0 186.5 53t130.5 149l200 -40q-70 -163 -209 -251.5t-309 -88.5z" />
    <glyph glyph-name="Dcaron" unicode="&#x10e;" horiz-adv-x="1440" 
d="M713 1563l-167 297h147l110 -211l183 211h149l-272 -297h-150zM103 0l251 1422h474q275 0 419 -146t144 -397q0 -103 -20 -204.5t-59.5 -201t-105 -184.5t-151.5 -150t-204.5 -102t-257.5 -37h-490zM367 204h237q117 0 212 42t157 109.5t104 156.5t60 179.5t18 182.5
q0 167 -88 256.5t-268 89.5h-253z" />
    <glyph glyph-name="dcaron" unicode="&#x10f;" horiz-adv-x="1446" 
d="M944 836l121 700h229l-271 -1536h-219l19 149q-59 -82 -151.5 -127t-197.5 -45q-180 0 -294 114.5t-114 308.5q0 117 41 229t113 200t179 142t229 54q115 0 199.5 -51t116.5 -138zM1460 1536h239l-197 -637h-167zM528 172q83 0 156.5 39t121.5 99.5t75.5 133.5t27.5 142
q0 110 -65 177.5t-169 67.5q-110 0 -199 -63.5t-135 -158t-46 -194.5q0 -113 64 -178t169 -65z" />
    <glyph glyph-name="Dcroat" unicode="&#x110;" horiz-adv-x="1440" 
d="M828 1422q275 0 419 -146t144 -397q0 -103 -20 -204.5t-59.5 -201t-105 -184.5t-151.5 -150t-204.5 -102t-257.5 -37h-490l113 640h-163l26 145h163l112 637h474zM604 204q117 0 212 42t157 109.5t104 156.5t60 179.5t18 182.5q0 167 -88 256.5t-268 89.5h-253l-77 -435
h258l-26 -145h-257l-77 -436h237z" />
    <glyph glyph-name="dcroat" unicode="&#x111;" horiz-adv-x="1251" 
d="M1401 1331l-26 -145h-156l-209 -1186h-209l20 155q-60 -84 -153.5 -131t-199.5 -47q-179 0 -292 114t-113 307q0 92 25.5 183t75.5 169.5t117 139t155.5 95.5t186.5 35q115 0 200 -52.5t117 -141.5l62 360h-275l26 145h274l36 205h218l-36 -205h156zM532 164
q82 0 153.5 37.5t117.5 97t72.5 130.5t26.5 140q0 120 -68.5 193.5t-179.5 73.5q-81 0 -152 -36.5t-117.5 -95t-73 -131t-26.5 -146.5q0 -122 68 -192.5t179 -70.5z" />
    <glyph glyph-name="Emacron" unicode="&#x112;" horiz-adv-x="1090" 
d="M1131 1703l-25 -140h-655l24 140h656zM1107 1220h-557l-72 -409h492l-35 -201h-492l-72 -406h557l-36 -204h-789l251 1422h789z" />
    <glyph glyph-name="emacron" unicode="&#x113;" horiz-adv-x="1128" 
d="M1061 1327l-25 -140h-655l24 140h656zM656 1021q190 0 301.5 -99t111.5 -288q0 -62 -11 -123l-11 -49h-770q-4 -32 -4 -72q0 -114 65.5 -173t171.5 -59q88 0 166 45t129 123l194 -48q-76 -141 -206 -219t-284 -78q-206 0 -325 109t-119 304q0 121 40 233t113.5 200
t187.5 141t250 53zM654 862q-124 0 -210.5 -68t-130.5 -181h548q3 24 3 46q0 101 -56.5 152t-153.5 51z" />
    <glyph glyph-name="Edotaccent" unicode="&#x116;" horiz-adv-x="1090" 
d="M779 1563q-58 0 -92.5 41.5t-24.5 99.5t59.5 99t108.5 41q57 0 91 -41t23 -99q-9 -58 -58 -99.5t-107 -41.5zM1107 1220h-557l-72 -409h492l-35 -201h-492l-72 -406h557l-36 -204h-789l251 1422h789z" />
    <glyph glyph-name="edotaccent" unicode="&#x117;" horiz-adv-x="1128" 
d="M723 1221q-58 0 -95 41t-32 100q6 58 52.5 99t105.5 41q57 0 94.5 -41t30.5 -99q-6 -58 -52.5 -99.5t-103.5 -41.5zM656 1021q190 0 301.5 -99t111.5 -288q0 -62 -11 -123l-11 -49h-770q-4 -32 -4 -72q0 -114 65.5 -173t171.5 -59q88 0 166 45t129 123l194 -48
q-76 -141 -206 -219t-284 -78q-206 0 -325 109t-119 304q0 121 40 233t113.5 200t187.5 141t250 53zM654 862q-124 0 -210.5 -68t-130.5 -181h548q3 24 3 46q0 101 -56.5 152t-153.5 51z" />
    <glyph glyph-name="Eogonek" unicode="&#x118;" horiz-adv-x="1090" 
d="M1107 1220h-557l-72 -409h492l-35 -201h-492l-72 -406h557l-36 -204q-198 -159 -209 -224q-4 -20 11 -29.5t49 -9.5q61 0 109 35l-28 -155q-62 -23 -129 -23q-86 0 -130.5 26.5t-36.5 75.5q19 102 260 304h-685l251 1422h789z" />
    <glyph glyph-name="eogonek" unicode="&#x119;" horiz-adv-x="1128" 
d="M656 1021q190 0 301.5 -99t111.5 -288q0 -62 -11 -123l-11 -49h-770q-4 -32 -4 -72q0 -114 65.5 -173t171.5 -59q88 0 166 45t129 123l194 -48q-70 -132 -195 -213q-113 -100 -122 -150q-4 -20 11 -29.5t49 -9.5q61 0 109 35l-28 -155q-62 -23 -129 -23
q-86 0 -130.5 26.5t-36.5 75.5q11 62 103 159q-56 -13 -121 -13q-206 0 -325 109t-119 304q0 121 40 233t113.5 200t187.5 141t250 53zM654 862q-124 0 -210.5 -68t-130.5 -181h548q3 24 3 46q0 101 -56.5 152t-153.5 51z" />
    <glyph glyph-name="Ecaron" unicode="&#x11a;" horiz-adv-x="1090" 
d="M853 1563h-150l-167 297h147l110 -211l183 211h149zM1107 1220h-557l-72 -409h492l-35 -201h-492l-72 -406h557l-36 -204h-789l251 1422h789z" />
    <glyph glyph-name="ecaron" unicode="&#x11b;" horiz-adv-x="1128" 
d="M782 1185h-151l-167 297h148l109 -211l184 211h148zM656 1021q190 0 301.5 -99t111.5 -288q0 -62 -11 -123l-11 -49h-770q-4 -32 -4 -72q0 -114 65.5 -173t171.5 -59q88 0 166 45t129 123l194 -48q-76 -141 -206 -219t-284 -78q-206 0 -325 109t-119 304q0 121 40 233
t113.5 200t187.5 141t250 53zM654 862q-124 0 -210.5 -68t-130.5 -181h548q3 24 3 46q0 101 -56.5 152t-153.5 51z" />
    <glyph glyph-name="Gbreve" unicode="&#x11e;" horiz-adv-x="1605" 
d="M989 1563q-163 0 -245 68.5t-56 213.5h136q-15 -85 35 -127.5t150 -42.5q101 0 166.5 42t80.5 128h136q-27 -146 -133 -214t-270 -68zM723 -19q-273 0 -438.5 156t-165.5 425q0 169 59 326.5t165 281t267 198t351 74.5q204 0 353 -88.5t213 -250.5l-211 -94
q-42 116 -136.5 173t-226.5 57q-111 0 -209.5 -38t-170.5 -103.5t-124.5 -151.5t-78.5 -184.5t-26 -200.5q0 -182 106.5 -280t295.5 -98q186 0 325.5 98t197.5 283l-443 -7l34 187h662l-132 -744h-183l46 233q-93 -123 -227.5 -187.5t-302.5 -64.5z" />
    <glyph glyph-name="gbreve" unicode="&#x11f;" horiz-adv-x="1229" 
d="M698 1144q-158 0 -239.5 88.5t-53.5 245.5h137q-17 -97 32 -159t144 -62q96 0 167.5 62t88.5 159h136q-28 -157 -140.5 -245.5t-271.5 -88.5zM951 1001h211l-167 -948q-46 -264 -198.5 -395.5t-384.5 -131.5q-385 0 -456 315l189 69q24 -107 87.5 -157.5t173.5 -50.5
q150 0 246 93.5t123 258.5l23 138q-57 -73 -149.5 -117t-194.5 -44q-170 0 -280.5 113t-110.5 295q0 154 73 288t197 213.5t268 79.5q115 0 200.5 -53t116.5 -138zM518 213q144 0 255 115.5t111 264.5q0 107 -67.5 178.5t-174.5 71.5q-97 0 -182.5 -55t-134.5 -143t-49 -184
q0 -109 67.5 -178.5t174.5 -69.5z" />
    <glyph glyph-name="Gdotaccent" unicode="&#x120;" horiz-adv-x="1605" 
d="M990 1563q-58 0 -92.5 41.5t-24.5 99.5t59.5 99t108.5 41q57 0 91 -41t23 -99q-9 -58 -58 -99.5t-107 -41.5zM723 -19q-273 0 -438.5 156t-165.5 425q0 169 59 326.5t165 281t267 198t351 74.5q204 0 353 -88.5t213 -250.5l-211 -94q-42 116 -136.5 173t-226.5 57
q-111 0 -209.5 -38t-170.5 -103.5t-124.5 -151.5t-78.5 -184.5t-26 -200.5q0 -182 106.5 -280t295.5 -98q186 0 325.5 98t197.5 283l-443 -7l34 187h662l-132 -744h-183l46 233q-93 -123 -227.5 -187.5t-302.5 -64.5z" />
    <glyph glyph-name="gdotaccent" unicode="&#x121;" horiz-adv-x="1229" 
d="M722 1217q-58 0 -95 41t-32 100q6 58 52.5 99t105.5 41q57 0 94.5 -41t30.5 -99q-6 -58 -52.5 -99.5t-103.5 -41.5zM951 1001h211l-167 -948q-46 -264 -198.5 -395.5t-384.5 -131.5q-385 0 -456 315l189 69q24 -107 87.5 -157.5t173.5 -50.5q150 0 246 93.5t123 258.5
l23 138q-57 -73 -149.5 -117t-194.5 -44q-170 0 -280.5 113t-110.5 295q0 154 73 288t197 213.5t268 79.5q115 0 200.5 -53t116.5 -138zM518 213q144 0 255 115.5t111 264.5q0 107 -67.5 178.5t-174.5 71.5q-97 0 -182.5 -55t-134.5 -143t-49 -184q0 -109 67.5 -178.5
t174.5 -69.5z" />
    <glyph glyph-name="Gcommaaccent" unicode="&#x122;" horiz-adv-x="1605" 
d="M723 -19q-273 0 -438.5 156t-165.5 425q0 169 59 326.5t165 281t267 198t351 74.5q204 0 353 -88.5t213 -250.5l-211 -94q-42 116 -136.5 173t-226.5 57q-111 0 -209.5 -38t-170.5 -103.5t-124.5 -151.5t-78.5 -184.5t-26 -200.5q0 -182 106.5 -280t295.5 -98
q186 0 325.5 98t197.5 283l-443 -7l34 187h662l-132 -744h-183l46 233q-93 -123 -227.5 -187.5t-302.5 -64.5zM462 -566l-107 53l229 370h205z" />
    <glyph glyph-name="gcommaaccent" unicode="&#x123;" horiz-adv-x="1229" 
d="M1108 1473l-293 -316h-241l364 316h170zM951 1001h211l-167 -948q-46 -264 -198.5 -395.5t-384.5 -131.5q-385 0 -456 315l189 69q24 -107 87.5 -157.5t173.5 -50.5q150 0 246 93.5t123 258.5l23 138q-57 -73 -149.5 -117t-194.5 -44q-170 0 -280.5 113t-110.5 295
q0 154 73 288t197 213.5t268 79.5q115 0 200.5 -53t116.5 -138zM518 213q144 0 255 115.5t111 264.5q0 107 -67.5 178.5t-174.5 71.5q-97 0 -182.5 -55t-134.5 -143t-49 -184q0 -109 67.5 -178.5t174.5 -69.5z" />
    <glyph glyph-name="Hbar" unicode="&#x126;" horiz-adv-x="1512" 
d="M1578 1168l-18 -105h-141l-188 -1063h-227l108 612h-672l-108 -612h-229l188 1063h-142l18 105h142l45 254h230l-45 -254h671l45 254h228l-45 -254h140zM1148 813l44 250h-672l-44 -250h672z" />
    <glyph glyph-name="hbar" unicode="&#x127;" horiz-adv-x="1139" 
d="M757 1020q131 0 208 -71t77 -198q0 -27 -8 -85l-119 -666h-218l114 643q5 35 5 56q0 73 -40 107.5t-107 34.5q-58 0 -110.5 -21.5t-98.5 -72.5t-68 -125l-110 -622h-219l210 1188h-139l26 145h139l36 203h218l-36 -203h291l-26 -145h-290l-57 -320q129 152 322 152z" />
    <glyph glyph-name="Itilde" unicode="&#x128;" horiz-adv-x="612" 
d="M641 1555q-121 0 -172 113q-25 55 -76 55q-45 0 -78.5 -42.5t-45.5 -110.5h-123q22 121 94 197.5t170 76.5q118 0 171 -113q26 -55 78 -55q45 0 77 41t45 111h124q-22 -120 -92.5 -196.5t-171.5 -76.5zM103 0l251 1422h228l-251 -1422h-228z" />
    <glyph glyph-name="itilde" unicode="&#x129;" horiz-adv-x="539" 
d="M516 1153q-107 0 -153 99q-20 45 -60 45q-38 0 -65 -36t-37 -95h-117q19 109 83 177.5t152 68.5q107 0 150 -100q20 -44 64 -44q37 0 62.5 34.5t36.5 95.5h118q-19 -107 -82.5 -176t-151.5 -69zM65 0l178 1006h231l-178 -1006h-231z" />
    <glyph glyph-name="Imacron" unicode="&#x12a;" horiz-adv-x="612" 
d="M164 1563l24 140h656l-25 -140h-655zM103 0l251 1422h228l-251 -1422h-228z" />
    <glyph glyph-name="imacron" unicode="&#x12b;" horiz-adv-x="539" 
d="M65 1188l24 140h656l-25 -140h-655zM65 0l178 1006h231l-178 -1006h-231z" />
    <glyph glyph-name="Iogonek" unicode="&#x12e;" horiz-adv-x="612" 
d="M332 0q-198 -159 -209 -224q-4 -20 11 -29.5t49 -9.5q61 0 109 35l-28 -155q-62 -23 -129 -23q-86 0 -130.5 26.5t-36.5 75.5q19 102 260 304h-125l251 1422h228l-251 -1422h1z" />
    <glyph glyph-name="iogonek" unicode="&#x12f;" horiz-adv-x="539" 
d="M438 1503q57 0 94.5 -41t30.5 -99q-6 -58 -52.5 -99.5t-103.5 -41.5q-58 0 -95 41t-32 100q6 58 52.5 99t105.5 41zM65 0l178 1006h231l-178 -1006q-198 -159 -209 -224q-4 -20 11 -29.5t49 -9.5q61 0 109 35l-28 -155q-62 -23 -129 -23q-86 0 -130.5 26.5t-36.5 75.5
q19 102 260 304h-127z" />
    <glyph glyph-name="Idotaccent" unicode="&#x130;" horiz-adv-x="612" 
d="M492 1563q-58 0 -92.5 41.5t-24.5 99.5t59.5 99t108.5 41q57 0 91 -41t23 -99q-9 -58 -58 -99.5t-107 -41.5zM103 0l251 1422h228l-251 -1422h-228z" />
    <glyph glyph-name="dotlessi" unicode="&#x131;" horiz-adv-x="539" 
d="M65 0l178 1006h231l-178 -1006h-231z" />
    <glyph glyph-name="Kcommaaccent" unicode="&#x136;" horiz-adv-x="1337" 
d="M761 740l-2 -9l446 -731h-270l-378 644h-112l-114 -644h-228l251 1422h228l-102 -576h121l566 576h286zM205 -513l229 370h205l-327 -423z" />
    <glyph glyph-name="kcommaaccent" unicode="&#x137;" horiz-adv-x="1070" 
d="M1118 1001l-489 -465l352 -536h-260l-289 456h-67l-80 -456h-222l272 1536h221l-162 -921h75l389 386h260zM88 -513l229 370h205l-327 -423z" />
    <glyph glyph-name="Lacute" unicode="&#x139;" horiz-adv-x="932" 
d="M834 1826l-271 -263h-149l319 347zM369 204h473l-36 -204h-703l251 1422h228z" />
    <glyph glyph-name="lacute" unicode="&#x13a;" horiz-adv-x="526" 
d="M394 1691l318 348l103 -84l-273 -264h-148zM63 0l272 1536h221l-271 -1536h-222z" />
    <glyph glyph-name="Lcommaaccent" unicode="&#x13b;" horiz-adv-x="932" 
d="M369 204h473l-36 -204h-703l251 1422h228zM98 -513l229 370h205l-327 -423z" />
    <glyph glyph-name="lcommaaccent" unicode="&#x13c;" horiz-adv-x="526" 
d="M63 0l272 1536h221l-271 -1536h-222zM-77 -566l-107 53l229 370h205z" />
    <glyph glyph-name="Lcaron" unicode="&#x13d;" horiz-adv-x="1042" 
d="M1120 1426l-308 -637h-170l237 637h241zM582 1422l-213 -1218h473l-36 -204h-703l251 1422h228z" />
    <glyph glyph-name="lcaron" unicode="&#x13e;" horiz-adv-x="711" 
d="M63 0l272 1536h232l-271 -1536h-233zM602 899l125 637h239l-197 -637h-167z" />
    <glyph glyph-name="Lslash" unicode="&#x141;" horiz-adv-x="932" 
d="M369 204h473l-36 -204h-703l95 541l-191 -126l28 155l191 126l128 726h228l-97 -555l214 141l-27 -156l-214 -141z" />
    <glyph glyph-name="lslash" unicode="&#x142;" horiz-adv-x="526" 
d="M649 1040l-27 -156l-205 -135l-132 -749h-222l104 585l-210 -138l28 155l209 138l141 796h221l-111 -631z" />
    <glyph glyph-name="Nacute" unicode="&#x143;" horiz-adv-x="1574" 
d="M1315 1826l-271 -263h-149l319 347zM1317 1422h226l-251 -1422h-249l-519 1102l-195 -1102h-226l251 1422h247l523 -1097z" />
    <glyph glyph-name="nacute" unicode="&#x144;" horiz-adv-x="1140" 
d="M1025 1420l-273 -264h-148l318 348zM758 1020q132 0 208.5 -71t76.5 -198q0 -27 -8 -85l-119 -666h-219l115 643q5 35 5 55q0 143 -155 143q-88 0 -164 -57.5t-106 -168.5l-109 -615h-218l177 1001h218l-23 -133q128 152 321 152z" />
    <glyph glyph-name="Ncommaaccent" unicode="&#x145;" horiz-adv-x="1574" 
d="M1317 1422h226l-251 -1422h-249l-519 1102l-195 -1102h-226l251 1422h247l523 -1097zM341 -513l229 370h205l-327 -423z" />
    <glyph glyph-name="ncommaaccent" unicode="&#x146;" horiz-adv-x="1140" 
d="M758 1020q132 0 208.5 -71t76.5 -198q0 -27 -8 -85l-119 -666h-219l115 643q5 35 5 55q0 143 -155 143q-88 0 -164 -57.5t-106 -168.5l-109 -615h-218l177 1001h218l-23 -133q128 152 321 152zM121 -513l229 370h205l-327 -423z" />
    <glyph glyph-name="Ncaron" unicode="&#x147;" horiz-adv-x="1574" 
d="M1048 1563h-150l-167 297h147l110 -211l183 211h149zM1317 1422h226l-251 -1422h-249l-519 1102l-195 -1102h-226l251 1422h247l523 -1097z" />
    <glyph glyph-name="ncaron" unicode="&#x148;" horiz-adv-x="1140" 
d="M762 1181h-151l-167 297h148l109 -211l184 211h148zM758 1020q132 0 208.5 -71t76.5 -198q0 -27 -8 -85l-119 -666h-219l115 643q5 35 5 55q0 143 -155 143q-88 0 -164 -57.5t-106 -168.5l-109 -615h-218l177 1001h218l-23 -133q128 152 321 152z" />
    <glyph glyph-name="Eng" unicode="&#x14a;" horiz-adv-x="1614" 
d="M1584 1426l-219 -1240l1 1l-34 -187q-38 -220 -193.5 -342.5t-381.5 -122.5l30 182q120 0 200.5 74t78.5 209l-532 1101l-194 -1101h-237l252 1426h263l536 -1093l193 1093h237z" />
    <glyph glyph-name="eng" unicode="&#x14b;" horiz-adv-x="1156" 
d="M767 1025q161 0 238 -95.5t47 -267.5l-147 -829q-26 -142 -116.5 -224t-226.5 -82h-160l29 166h85q57 0 102 38t57 106l139 788q20 108 -20.5 156.5t-124.5 48.5q-100 0 -174.5 -60.5t-94.5 -171.5l-106 -598h-229l178 1006h229l-22 -126q62 69 143.5 107t173.5 38z" />
    <glyph glyph-name="Omacron" unicode="&#x14c;" horiz-adv-x="1621" 
d="M671 1563l24 140h656l-25 -140h-655zM734 -19q-277 0 -445 158t-168 429q0 134 37 262.5t110.5 238.5t173.5 193.5t234.5 131.5t286.5 48q275 0 443.5 -158t168.5 -428q0 -168 -60 -325.5t-166.5 -279.5t-267 -196t-347.5 -74zM743 193q135 0 251 56t192.5 147.5t120 208
t43.5 238.5q0 182 -109 284.5t-288 102.5q-134 0 -250 -56t-193.5 -147.5t-121 -207.5t-43.5 -238q0 -183 109.5 -285.5t288.5 -102.5z" />
    <glyph glyph-name="omacron" unicode="&#x14d;" horiz-adv-x="1189" 
d="M387 1182l24 140h656l-25 -140h-655zM516 -19q-204 0 -328.5 113t-124.5 308q0 120 42.5 231t118.5 197.5t192.5 138t254.5 51.5q206 0 329.5 -113t123.5 -308q0 -120 -42.5 -231t-119 -197t-193 -138t-253.5 -52zM521 159q87 0 161.5 38.5t122.5 101t75 138t27 152.5
q0 116 -66.5 185.5t-178.5 69.5q-86 0 -160 -39.5t-121 -102t-73 -138.5t-26 -151q0 -118 64.5 -186t174.5 -68z" />
    <glyph glyph-name="Ohungarumlaut" unicode="&#x150;" horiz-adv-x="1621" 
d="M739 1563l319 347l101 -84l-271 -263h-149zM1108 1563l318 347l102 -84l-272 -263h-148zM734 -19q-277 0 -445 158t-168 429q0 134 37 262.5t110.5 238.5t173.5 193.5t234.5 131.5t286.5 48q275 0 443.5 -158t168.5 -428q0 -168 -60 -325.5t-166.5 -279.5t-267 -196
t-347.5 -74zM743 193q135 0 251 56t192.5 147.5t120 208t43.5 238.5q0 182 -109 284.5t-288 102.5q-134 0 -250 -56t-193.5 -147.5t-121 -207.5t-43.5 -238q0 -183 109.5 -285.5t288.5 -102.5z" />
    <glyph glyph-name="ohungarumlaut" unicode="&#x151;" horiz-adv-x="1189" 
d="M449 1155l318 348l103 -84l-273 -264h-148zM817 1155l319 348l102 -84l-272 -264h-149zM516 -19q-204 0 -328.5 113t-124.5 308q0 120 42.5 231t118.5 197.5t192.5 138t254.5 51.5q206 0 329.5 -113t123.5 -308q0 -120 -42.5 -231t-119 -197t-193 -138t-253.5 -52z
M521 159q87 0 161.5 38.5t122.5 101t75 138t27 152.5q0 116 -66.5 185.5t-178.5 69.5q-86 0 -160 -39.5t-121 -102t-73 -138.5t-26 -151q0 -118 64.5 -186t174.5 -68z" />
    <glyph glyph-name="OE" unicode="&#x152;" horiz-adv-x="1958" 
d="M725 0q-309 0 -458.5 135.5t-149.5 386.5q0 135 27.5 259.5t92 242.5t161 205t245 139.5t333.5 52.5h1035l-38 -214h-591l-68 -390h505l-38 -214h-505l-69 -389h591l-38 -214h-1035zM774 214h195l175 993h-195q-132 0 -235.5 -39t-167.5 -102t-105.5 -150.5t-57.5 -176
t-16 -186.5q0 -168 97.5 -253.5t309.5 -85.5z" />
    <glyph glyph-name="oe" unicode="&#x153;" horiz-adv-x="1964" 
d="M1492 1021q190 0 301.5 -99t111.5 -288q0 -62 -11 -123l-11 -49h-770q-4 -32 -4 -72q0 -114 65.5 -173t171.5 -59q88 0 166 45t129 123l194 -48q-76 -141 -206 -219t-284 -78q-134 0 -233.5 48t-153.5 138q-173 -186 -442 -186q-204 0 -328.5 113t-124.5 308
q0 120 42.5 231t118.5 197.5t192.5 138t254.5 51.5q132 0 233 -48t157 -138q167 187 431 187zM1490 862q-124 0 -210.5 -68t-130.5 -181h548q3 24 3 46q0 101 -56.5 152t-153.5 51zM521 159q87 0 161.5 38.5t122.5 101t75 138t27 152.5q0 116 -66.5 185.5t-178.5 69.5
q-86 0 -160 -39.5t-121 -102t-73 -138.5t-26 -151q0 -118 64.5 -186t174.5 -68z" />
    <glyph glyph-name="Racute" unicode="&#x154;" horiz-adv-x="1269" 
d="M1160 1826l-271 -263h-149l319 347zM1218 1086q0 -57 -12.5 -112.5t-41.5 -110.5t-71.5 -99t-107.5 -76.5t-144 -44.5l289 -643h-250l-267 636h-170l-111 -636h-229l251 1422h483q190 0 285.5 -92t95.5 -244zM547 1229l-77 -439h222q71 0 126.5 19t89 48t55 66.5t29.5 70
t8 63.5q0 172 -216 172h-237z" />
    <glyph glyph-name="racute" unicode="&#x155;" horiz-adv-x="694" 
d="M800 1420l-273 -264h-148l318 348zM426 835q52 76 146 126t197 51l-40 -214q-144 0 -237 -75t-120 -228l-87 -495h-220l177 1001h212z" />
    <glyph glyph-name="Rcommaaccent" unicode="&#x156;" horiz-adv-x="1269" 
d="M1218 1086q0 -57 -12.5 -112.5t-41.5 -110.5t-71.5 -99t-107.5 -76.5t-144 -44.5l289 -643h-250l-267 636h-170l-111 -636h-229l251 1422h483q190 0 285.5 -92t95.5 -244zM547 1229l-77 -439h222q71 0 126.5 19t89 48t55 66.5t29.5 70t8 63.5q0 172 -216 172h-237z
M185 -513l229 370h205l-327 -423z" />
    <glyph glyph-name="rcommaaccent" unicode="&#x157;" horiz-adv-x="694" 
d="M426 835q52 76 146 126t197 51l-40 -214q-144 0 -237 -75t-120 -228l-87 -495h-220l177 1001h212zM-183 -513l229 370h205l-327 -423z" />
    <glyph glyph-name="Rcaron" unicode="&#x158;" horiz-adv-x="1269" 
d="M893 1563h-150l-167 297h147l110 -211l183 211h149zM1218 1086q0 -57 -12.5 -112.5t-41.5 -110.5t-71.5 -99t-107.5 -76.5t-144 -44.5l289 -643h-250l-267 636h-170l-111 -636h-229l251 1422h483q190 0 285.5 -92t95.5 -244zM547 1229l-77 -439h222q71 0 126.5 19t89 48
t55 66.5t29.5 70t8 63.5q0 172 -216 172h-237z" />
    <glyph glyph-name="rcaron" unicode="&#x159;" horiz-adv-x="694" 
d="M537 1181h-151l-167 297h148l109 -211l184 211h148zM426 835q52 76 146 126t197 51l-40 -214q-144 0 -237 -75t-120 -228l-87 -495h-220l177 1001h212z" />
    <glyph glyph-name="Sacute" unicode="&#x15a;" horiz-adv-x="1256" 
d="M738 1563l319 347l101 -84l-271 -263h-149zM591 -19q-234 0 -382.5 107.5t-151.5 290.5l239 41q6 -116 89 -182.5t219 -66.5t223 63t87 165q0 45 -18.5 81.5t-41 58.5t-71.5 44.5t-78.5 32t-93.5 28.5q-7 2 -10 3q-49 14 -82 25t-77.5 29.5t-73.5 37t-60.5 47t-50 60.5
t-30.5 75.5t-12 94.5q0 187 149.5 306.5t373.5 119.5q99 0 187 -22t159.5 -65t114.5 -114.5t47 -162.5l-224 -42q-4 109 -81.5 162t-195.5 53q-128 0 -215 -62t-87 -153q0 -30 8.5 -55t19.5 -43t34.5 -35t42 -27.5t54 -23t56.5 -19t64 -18.5q53 -15 87.5 -25.5t84 -30
t81.5 -39t68 -50t57 -64.5t35 -81.5t14 -102.5q0 -137 -74 -238t-199 -152t-285 -51z" />
    <glyph glyph-name="sacute" unicode="&#x15b;" horiz-adv-x="937" 
d="M509 1156l318 348l103 -84l-273 -264h-148zM397 -19q-173 0 -270.5 75t-98.5 209l202 40q-3 -80 46 -125.5t133 -45.5t141.5 44t57.5 123q0 26 -10.5 46.5t-24.5 33.5t-44.5 25.5t-55.5 20t-71 19.5q-48 13 -82 24.5t-72 32t-61 45t-38.5 62.5t-15.5 85q0 153 114 238.5
t287 85.5q99 0 176 -27.5t125.5 -89.5t49.5 -152l-186 -30q2 76 -44 111.5t-117 35.5q-83 0 -140 -42t-57 -113q0 -23 9.5 -41.5t24.5 -30t39.5 -21.5t47.5 -16.5t57 -14.5q11 -3 17 -4q65 -17 109 -34t88.5 -47t67 -76t22.5 -108q0 -161 -119.5 -249.5t-306.5 -88.5z" />
    <glyph glyph-name="Scedilla" unicode="&#x15e;" horiz-adv-x="1256" 
d="M722 815q53 -15 87.5 -25.5t84 -30t81.5 -39t68 -50t57 -64.5t35 -81.5t14 -102.5q0 -137 -74 -238t-199 -152t-285 -51h-5l-77 -111q34 6 51 6q85 0 131.5 -53.5t32.5 -137.5q-17 -91 -90 -154t-164 -63q-79 0 -137.5 40t-75.5 101l113 40q13 -31 46 -50.5t69 -19.5
q44 0 80.5 30t44.5 76q9 48 -17.5 75t-74.5 27q-46 0 -82 -26l-80 56l120 171q-188 25 -302.5 128.5t-116.5 262.5l239 41q6 -116 89 -182.5t219 -66.5t223 63t87 165q0 45 -18.5 81.5t-41 58.5t-71.5 44.5t-78.5 32t-93.5 28.5q-7 2 -10 3q-49 14 -82 25t-77.5 29.5
t-73.5 37t-60.5 47t-50 60.5t-30.5 75.5t-12 94.5q0 187 149.5 306.5t373.5 119.5q99 0 187 -22t159.5 -65t114.5 -114.5t47 -162.5l-224 -42q-4 109 -81.5 162t-195.5 53q-128 0 -215 -62t-87 -153q0 -30 8.5 -55t19.5 -43t34.5 -35t42 -27.5t54 -23t56.5 -19t64 -18.5z
" />
    <glyph glyph-name="scedilla" unicode="&#x15f;" horiz-adv-x="937" 
d="M536 584q65 -17 109 -34t88.5 -47t67 -76t22.5 -108q0 -154 -109.5 -241.5t-284.5 -95.5l-77 -111q34 6 51 6q85 0 131.5 -53.5t32.5 -137.5q-17 -91 -90 -154t-164 -63q-79 0 -137.5 40t-75.5 101l113 40q13 -31 46 -50.5t69 -19.5q44 0 80.5 30t44.5 76q9 48 -17.5 75
t-74.5 27q-46 0 -82 -26l-80 56l118 168q-137 17 -212.5 89.5t-76.5 189.5l202 40q-3 -80 46 -125.5t133 -45.5t141.5 44t57.5 123q0 26 -10.5 46.5t-24.5 33.5t-44.5 25.5t-55.5 20t-71 19.5q-48 13 -82 24.5t-72 32t-61 45t-38.5 62.5t-15.5 85q0 153 114 238.5t287 85.5
q99 0 176 -27.5t125.5 -89.5t49.5 -152l-186 -30q2 76 -44 111.5t-117 35.5q-83 0 -140 -42t-57 -113q0 -23 9.5 -41.5t24.5 -30t39.5 -21.5t47.5 -16.5t57 -14.5q11 -3 17 -4z" />
    <glyph glyph-name="Scaron" unicode="&#x160;" horiz-adv-x="1256" 
d="M741 1563l-167 297h147l110 -211l183 211h149l-272 -297h-150zM591 -19q-234 0 -382.5 107.5t-151.5 290.5l239 41q6 -116 89 -182.5t219 -66.5t223 63t87 165q0 45 -18.5 81.5t-41 58.5t-71.5 44.5t-78.5 32t-93.5 28.5q-7 2 -10 3q-49 14 -82 25t-77.5 29.5t-73.5 37
t-60.5 47t-50 60.5t-30.5 75.5t-12 94.5q0 187 149.5 306.5t373.5 119.5q99 0 187 -22t159.5 -65t114.5 -114.5t47 -162.5l-224 -42q-4 109 -81.5 162t-195.5 53q-128 0 -215 -62t-87 -153q0 -30 8.5 -55t19.5 -43t34.5 -35t42 -27.5t54 -23t56.5 -19t64 -18.5
q53 -15 87.5 -25.5t84 -30t81.5 -39t68 -50t57 -64.5t35 -81.5t14 -102.5q0 -137 -74 -238t-199 -152t-285 -51z" />
    <glyph glyph-name="scaron" unicode="&#x161;" horiz-adv-x="937" 
d="M516 1181l-167 297h148l109 -211l184 211h148l-271 -297h-151zM397 -19q-173 0 -270.5 75t-98.5 209l202 40q-3 -80 46 -125.5t133 -45.5t141.5 44t57.5 123q0 26 -10.5 46.5t-24.5 33.5t-44.5 25.5t-55.5 20t-71 19.5q-48 13 -82 24.5t-72 32t-61 45t-38.5 62.5
t-15.5 85q0 153 114 238.5t287 85.5q99 0 176 -27.5t125.5 -89.5t49.5 -152l-186 -30q2 76 -44 111.5t-117 35.5q-83 0 -140 -42t-57 -113q0 -23 9.5 -41.5t24.5 -30t39.5 -21.5t47.5 -16.5t57 -14.5q11 -3 17 -4q65 -17 109 -34t88.5 -47t67 -76t22.5 -108
q0 -161 -119.5 -249.5t-306.5 -88.5z" />
    <glyph glyph-name="uni0162" unicode="&#x162;" horiz-adv-x="1008" 
d="M528 0h-53l-91 -130q34 6 51 6q85 0 131.5 -53.5t32.5 -137.5q-17 -91 -90 -154t-164 -63q-79 0 -137.5 40t-75.5 101l113 40q13 -31 46 -50.5t69 -19.5q44 0 80.5 30t44.5 76q9 48 -17.5 75t-74.5 27q-46 0 -82 -26l-80 56l128 183h-56l215 1220h-355l36 202h935
l-36 -202h-355z" />
    <glyph glyph-name="uni0163" unicode="&#x163;" horiz-adv-x="717" 
d="M490 830l-93 -526q-3 -15 -3 -40q0 -94 103 -94h98l-31 -170h-52l-91 -130q34 6 51 6q85 0 131.5 -53.5t32.5 -137.5q-17 -91 -90 -154t-164 -63q-79 0 -137.5 40t-75.5 101l113 40q13 -31 46 -50.5t69 -19.5q44 0 80.5 30t44.5 76q9 48 -17.5 75t-74.5 27q-46 0 -82 -26
l-80 56l129 183q-108 5 -168 65t-60 163q0 33 7 68l95 534h-202l30 171h63q72 0 122 41t63 117l30 171h202l-58 -329h220l-29 -171h-222z" />
    <glyph glyph-name="Tcaron" unicode="&#x164;" horiz-adv-x="1008" 
d="M766 1563h-150l-167 297h147l110 -211l183 211h149zM1134 1422l-36 -202h-355l-215 -1220h-225l215 1220h-355l36 202h935z" />
    <glyph glyph-name="tcaron" unicode="&#x165;" horiz-adv-x="730" 
d="M723 1201l125 636h238l-196 -636h-167zM421 0q-117 0 -183 61.5t-66 170.5q0 41 6 70l93 524h-201l31 180h62q73 0 124 41.5t65 118.5l29 169h212l-57 -329h219l-32 -180h-219l-92 -516q-3 -23 -3 -40q0 -92 101 -92h98l-31 -178h-156z" />
    <glyph glyph-name="Tbar" unicode="&#x166;" horiz-adv-x="1008" 
d="M1098 1220h-355l-76 -435h212l-26 -145h-212l-113 -640h-225l113 640h-211l26 145h211l76 435h-355l36 202h935z" />
    <glyph glyph-name="tbar" unicode="&#x167;" horiz-adv-x="717" 
d="M712 830h-222l-45 -255h162l-22 -145h-166l-22 -126q-3 -15 -3 -40q0 -94 103 -94h98l-31 -170h-150q-115 0 -180 60.5t-65 167.5q0 33 7 68l24 134h-152l22 145h156l45 255h-202l30 171h63q72 0 122 41t63 117l30 171h202l-58 -329h220z" />
    <glyph glyph-name="Utilde" unicode="&#x168;" horiz-adv-x="1397" 
d="M1032 1555q-121 0 -172 113q-25 55 -76 55q-45 0 -78.5 -42.5t-45.5 -110.5h-123q22 121 94 197.5t170 76.5q118 0 171 -113q26 -55 78 -55q45 0 77 41t45 111h124q-22 -120 -92.5 -196.5t-171.5 -76.5zM618 -19q-211 0 -339.5 105.5t-128.5 297.5q0 55 10 106l165 932
h227l-161 -916q-9 -50 -9 -90q0 -117 65.5 -174.5t177.5 -57.5q142 0 247 86.5t135 250.5l159 901h228l-167 -948q-22 -121 -79 -216.5t-138.5 -155t-181 -90.5t-210.5 -31z" />
    <glyph glyph-name="utilde" unicode="&#x169;" horiz-adv-x="1140" 
d="M606 1292q-38 0 -65 -36t-37 -95h-117q19 109 83 177.5t152 68.5q107 0 150 -100q20 -44 64 -44q37 0 62.5 34.5t36.5 95.5h118q-19 -107 -82.5 -176t-151.5 -69q-107 0 -153 99q-20 45 -60 45zM856 1001h218l-177 -1001h-207l19 142q-62 -76 -145.5 -118.5t-180.5 -42.5
q-134 0 -211 71t-77 199q0 36 8 84l119 666h218l-110 -624q-6 -36 -6 -63q0 -76 41 -112t109 -36q104 0 180 65t97 180h1z" />
    <glyph glyph-name="Umacron" unicode="&#x16a;" horiz-adv-x="1397" 
d="M555 1563l24 140h656l-25 -140h-655zM618 -19q-211 0 -339.5 105.5t-128.5 297.5q0 55 10 106l165 932h227l-161 -916q-9 -50 -9 -90q0 -117 65.5 -174.5t177.5 -57.5q142 0 247 86.5t135 250.5l159 901h228l-167 -948q-22 -121 -79 -216.5t-138.5 -155t-181 -90.5
t-210.5 -31z" />
    <glyph glyph-name="umacron" unicode="&#x16b;" horiz-adv-x="1140" 
d="M1048 1323l-25 -140h-655l24 140h656zM856 1001h218l-177 -1001h-207l19 142q-62 -76 -145.5 -118.5t-180.5 -42.5q-134 0 -211 71t-77 199q0 36 8 84l119 666h218l-110 -624q-6 -36 -6 -63q0 -76 41 -112t109 -36q104 0 180 65t97 180h1z" />
    <glyph glyph-name="Uring" unicode="&#x16e;" horiz-adv-x="1397" 
d="M892 1563q-86 0 -140.5 52t-56.5 136q-4 103 71.5 181.5t186.5 78.5q87 0 139.5 -52t54.5 -134q3 -103 -71 -182.5t-184 -79.5zM903 1666q62 0 102.5 42.5t40.5 98.5q0 45 -28 75t-76 30q-60 0 -101 -45t-41 -102q0 -45 27.5 -72t75.5 -27zM618 -19q-211 0 -339.5 105.5
t-128.5 297.5q0 55 10 106l165 932h227l-161 -916q-9 -50 -9 -90q0 -117 65.5 -174.5t177.5 -57.5q142 0 247 86.5t135 250.5l159 901h228l-167 -948q-22 -121 -79 -216.5t-138.5 -155t-181 -90.5t-210.5 -31z" />
    <glyph glyph-name="uring" unicode="&#x16f;" horiz-adv-x="1140" 
d="M699 1124q-93 0 -152.5 66t-50.5 159q11 92 84 157.5t167 65.5q92 0 150 -65.5t47 -157.5q-9 -92 -81.5 -158.5t-163.5 -66.5zM601 1349q-5 -54 26 -88t83 -34t90 34.5t43 87.5q5 51 -26 87.5t-81 36.5q-51 0 -90 -36.5t-45 -87.5zM856 1001h218l-177 -1001h-207l19 142
q-62 -76 -145.5 -118.5t-180.5 -42.5q-134 0 -211 71t-77 199q0 36 8 84l119 666h218l-110 -624q-6 -36 -6 -63q0 -76 41 -112t109 -36q104 0 180 65t97 180h1z" />
    <glyph glyph-name="Uhungarumlaut" unicode="&#x170;" horiz-adv-x="1397" 
d="M623 1563l319 347l101 -84l-271 -263h-149zM992 1563l318 347l102 -84l-272 -263h-148zM618 -19q-211 0 -339.5 105.5t-128.5 297.5q0 55 10 106l165 932h227l-161 -916q-9 -50 -9 -90q0 -117 65.5 -174.5t177.5 -57.5q142 0 247 86.5t135 250.5l159 901h228l-167 -948
q-22 -121 -79 -216.5t-138.5 -155t-181 -90.5t-210.5 -31z" />
    <glyph glyph-name="uhungarumlaut" unicode="&#x171;" horiz-adv-x="1140" 
d="M851 1420l-273 -264h-148l318 348zM947 1156h-149l319 348l102 -84zM752 411l104 590h218l-177 -1001h-207l19 142q-62 -76 -145.5 -118.5t-180.5 -42.5q-134 0 -211 71t-77 199q0 36 8 84l119 666h218l-110 -624q-6 -36 -6 -63q0 -76 41 -112t109 -36q104 0 180 65
t97 180h1z" />
    <glyph glyph-name="Uogonek" unicode="&#x172;" horiz-adv-x="1397" 
d="M1166 1422h228l-167 -948q-31 -174 -130 -289t-245 -166q-164 -137 -175 -196q-4 -20 11 -29.5t49 -9.5q61 0 109 35l-28 -155q-62 -23 -129 -23q-86 0 -130.5 26.5t-36.5 75.5q15 86 190 244q-46 -6 -94 -6q-211 0 -339.5 105.5t-128.5 297.5q0 55 10 106l165 932h227
l-161 -916q-9 -50 -9 -90q0 -117 65.5 -174.5t177.5 -57.5q142 0 247 86.5t135 250.5z" />
    <glyph glyph-name="uogonek" unicode="&#x173;" horiz-adv-x="1140" 
d="M897 0q-198 -159 -209 -224q-4 -20 11 -29.5t49 -9.5q61 0 109 35l-28 -155q-62 -23 -129 -23q-86 0 -130.5 26.5t-36.5 75.5q19 102 260 304h-103l19 142q-62 -76 -145.5 -118.5t-180.5 -42.5q-134 0 -211 71t-77 199q0 36 8 84l119 666h218l-110 -624q-6 -36 -6 -63
q0 -76 41 -112t109 -36q104 0 180 65t97 180h1l104 590h218z" />
    <glyph glyph-name="Wcircumflex" unicode="&#x174;" horiz-adv-x="2067" 
d="M1071 1563h-147l271 297h150l167 -297h-148l-110 210zM350 0l-142 1422h231l111 -1133l543 1133h196l136 -1133l519 1133h239l-643 -1422h-280l-136 1008l-493 -1008h-281z" />
    <glyph glyph-name="wcircumflex" unicode="&#x175;" horiz-adv-x="1636" 
d="M981 1391l-183 -210h-148l272 297h150l167 -297h-149zM1478 1001h231l-524 -1002h-201l-126 726l-385 -726h-203l-165 1002h225l103 -719l384 719h169l129 -720z" />
    <glyph glyph-name="Ycircumflex" unicode="&#x176;" horiz-adv-x="1205" 
d="M822 1773l-183 -210h-147l271 297h150l167 -297h-148zM1348 1422l-604 -748l-118 -674h-230l121 682l-336 740h245l232 -542l424 542h266z" />
    <glyph glyph-name="ycircumflex" unicode="&#x177;" horiz-adv-x="1023" 
d="M666 1391l-183 -210h-148l272 297h150l167 -297h-149zM870 1001h232l-855 -1472h-229l304 513l-225 959h236l135 -726z" />
    <glyph glyph-name="Ydieresis" unicode="&#x178;" horiz-adv-x="1205" 
d="M591 1563q-51 0 -81.5 36.5t-21.5 88.5q10 51 53.5 87.5t93.5 36.5q51 0 81.5 -36.5t20.5 -87.5q-8 -51 -51.5 -88t-94.5 -37zM983 1563q-51 0 -81 36.5t-22 88.5q10 51 53 87.5t94 36.5t81.5 -36.5t20.5 -87.5q-9 -52 -52 -88.5t-94 -36.5zM1348 1422l-604 -748
l-118 -674h-230l121 682l-336 740h245l232 -542l424 542h266z" />
    <glyph glyph-name="Zacute" unicode="&#x179;" horiz-adv-x="1206" 
d="M1148 1826l-271 -263h-149l319 347zM1270 1422l-30 -183l-930 -1035h765l-36 -204h-1046l31 182l933 1038h-747l36 202h1024z" />
    <glyph glyph-name="zacute" unicode="&#x17a;" horiz-adv-x="900" 
d="M921 1420l-273 -264h-148l318 348zM942 1001l-632 -828h476l-29 -173h-812l629 828h-447l31 173h784z" />
    <glyph glyph-name="Zdotaccent" unicode="&#x17b;" horiz-adv-x="1206" 
d="M807 1563q-58 0 -92.5 41.5t-24.5 99.5t59.5 99t108.5 41q57 0 91 -41t23 -99q-9 -58 -58 -99.5t-107 -41.5zM1270 1422l-30 -183l-930 -1035h765l-36 -204h-1046l31 182l933 1038h-747l36 202h1024z" />
    <glyph glyph-name="zdotaccent" unicode="&#x17c;" horiz-adv-x="900" 
d="M599 1217q-58 0 -95 41t-32 100q6 58 52.5 99t105.5 41q57 0 94.5 -41t30.5 -99q-6 -58 -52.5 -99.5t-103.5 -41.5zM942 1001l-632 -828h476l-29 -173h-812l629 828h-447l31 173h784z" />
    <glyph glyph-name="Zcaron" unicode="&#x17d;" horiz-adv-x="1206" 
d="M881 1563h-150l-167 297h147l110 -211l183 211h149zM1270 1422l-30 -183l-930 -1035h765l-36 -204h-1046l31 182l933 1038h-747l36 202h1024z" />
    <glyph glyph-name="zcaron" unicode="&#x17e;" horiz-adv-x="900" 
d="M658 1181h-151l-167 297h148l109 -211l184 211h148zM942 1001l-632 -828h476l-29 -173h-812l629 828h-447l31 173h784z" />
    <glyph glyph-name="florin" unicode="&#x192;" horiz-adv-x="1019" 
d="M-23 -402l411 1224h-172l62 184h173l74 229q44 138 169 229.5t260 91.5q49 0 90 -13t59 -29l-36 -159q-29 28 -89 28q-83 0 -151.5 -54t-96.5 -139l-63 -184h281l-60 -184h-282l-412 -1224h-217z" />
    <glyph glyph-name="Ohorn" unicode="&#x1a0;" horiz-adv-x="1621" 
d="M1654 1509h125l-24 -137q-41 -233 -218 -233q-16 0 -24 1q62 -126 62 -284q0 -168 -60 -325.5t-166.5 -279.5t-267 -196t-347.5 -74q-277 0 -445 158t-168 429q0 134 37 262.5t110.5 238.5t173.5 193.5t234.5 131.5t286.5 48q286 0 454 -168l2 2q48 -28 95 -28
q53 0 80 34t40 112zM743 193q135 0 251 56t192.5 147.5t120 208t43.5 238.5q0 182 -109 284.5t-288 102.5q-134 0 -250 -56t-193.5 -147.5t-121 -207.5t-43.5 -238q0 -183 109.5 -285.5t288.5 -102.5z" />
    <glyph glyph-name="ohorn" unicode="&#x1a1;" horiz-adv-x="1189" 
d="M1211 1154h125l-24 -137q-41 -233 -218 -233h-6q36 -85 36 -185q0 -120 -42.5 -231t-119 -197t-193 -138t-253.5 -52q-204 0 -328.5 113t-124.5 308q0 120 42.5 231t118.5 197.5t192.5 138t254.5 51.5q204 0 326 -110q38 -17 74 -17q53 0 80 34t40 112zM521 159
q87 0 161.5 38.5t122.5 101t75 138t27 152.5q0 116 -66.5 185.5t-178.5 69.5q-86 0 -160 -39.5t-121 -102t-73 -138.5t-26 -151q0 -118 64.5 -186t174.5 -68z" />
    <glyph glyph-name="Uhorn" unicode="&#x1af;" horiz-adv-x="1397" 
d="M1575 1568h125l-24 -137q-41 -233 -218 -233q-46 0 -100 19l-131 -743q-22 -121 -79 -216.5t-138.5 -155t-181 -90.5t-210.5 -31q-211 0 -339.5 105.5t-128.5 297.5q0 55 10 106l165 932h227l-161 -916q-9 -50 -9 -90q0 -117 65.5 -174.5t177.5 -57.5q142 0 247 86.5
t135 250.5l159 901h228l-18 -104q29 -11 59 -11q53 0 80 34t40 112z" />
    <glyph glyph-name="uhorn" unicode="&#x1b0;" horiz-adv-x="1140" 
d="M1267 1147h125l-24 -137q-41 -233 -218 -233q-56 0 -111 24l-142 -801h-207l19 142q-62 -76 -145.5 -118.5t-180.5 -42.5q-134 0 -211 71t-77 199q0 36 8 84l119 666h218l-110 -624q-6 -36 -6 -63q0 -76 41 -112t109 -36q104 0 180 65t97 180h1l104 590h218l-18 -99
q38 -16 71 -16q53 0 80 34t40 112z" />
    <glyph glyph-name="uni01CD" unicode="&#x1cd;" horiz-adv-x="1392" 
d="M957 1563h-150l-167 297h147l110 -211l183 211h149zM1036 0l-57 322h-626l-171 -322h-237l774 1422h275l275 -1422h-233zM457 517h487l-122 685z" />
    <glyph glyph-name="uni01CE" unicode="&#x1ce;" horiz-adv-x="1253" 
d="M823 1186h-151l-167 297h148l109 -211l184 211h148zM969 1001h218l-177 -1001h-200l16 162q-60 -87 -155.5 -136t-202.5 -49q-179 0 -292 114.5t-113 309.5q0 114 41 225t112.5 198.5t178 141.5t227.5 54q117 0 201.5 -52t115.5 -141zM528 164q82 0 154.5 38.5t120 98
t74.5 131t27 139.5q0 115 -66.5 190t-181.5 75q-108 0 -195 -63t-131.5 -157t-44.5 -194q0 -119 66.5 -188.5t176.5 -69.5z" />
    <glyph glyph-name="uni01CF" unicode="&#x1cf;" horiz-adv-x="612" 
d="M416 1563l-167 297h147l110 -211l183 211h149l-272 -297h-150zM103 0l251 1422h228l-251 -1422h-228z" />
    <glyph glyph-name="uni01D0" unicode="&#x1d0;" horiz-adv-x="539" 
d="M315 1186l-167 297h148l109 -211l184 211h148l-271 -297h-151zM65 0l178 1006h231l-178 -1006h-231z" />
    <glyph glyph-name="uni01D1" unicode="&#x1d1;" horiz-adv-x="1621" 
d="M923 1563l-167 297h147l110 -211l183 211h149l-272 -297h-150zM734 -19q-277 0 -445 158t-168 429q0 134 37 262.5t110.5 238.5t173.5 193.5t234.5 131.5t286.5 48q275 0 443.5 -158t168.5 -428q0 -168 -60 -325.5t-166.5 -279.5t-267 -196t-347.5 -74zM743 193
q135 0 251 56t192.5 147.5t120 208t43.5 238.5q0 182 -109 284.5t-288 102.5q-134 0 -250 -56t-193.5 -147.5t-121 -207.5t-43.5 -238q0 -183 109.5 -285.5t288.5 -102.5z" />
    <glyph glyph-name="uni01D2" unicode="&#x1d2;" horiz-adv-x="1189" 
d="M637 1180l-167 297h148l109 -211l184 211h148l-271 -297h-151zM516 -19q-204 0 -328.5 113t-124.5 308q0 120 42.5 231t118.5 197.5t192.5 138t254.5 51.5q206 0 329.5 -113t123.5 -308q0 -120 -42.5 -231t-119 -197t-193 -138t-253.5 -52zM521 159q87 0 161.5 38.5
t122.5 101t75 138t27 152.5q0 116 -66.5 185.5t-178.5 69.5q-86 0 -160 -39.5t-121 -102t-73 -138.5t-26 -151q0 -118 64.5 -186t174.5 -68z" />
    <glyph glyph-name="uni01D3" unicode="&#x1d3;" horiz-adv-x="1397" 
d="M807 1563l-167 297h147l110 -211l183 211h149l-272 -297h-150zM618 -19q-211 0 -339.5 105.5t-128.5 297.5q0 55 10 106l165 932h227l-161 -916q-9 -50 -9 -90q0 -117 65.5 -174.5t177.5 -57.5q142 0 247 86.5t135 250.5l159 901h228l-167 -948q-22 -121 -79 -216.5
t-138.5 -155t-181 -90.5t-210.5 -31z" />
    <glyph glyph-name="uni01D4" unicode="&#x1d4;" horiz-adv-x="1140" 
d="M769 1181h-151l-167 297h148l109 -211l184 211h148zM856 1001h218l-177 -1001h-207l19 142q-62 -76 -145.5 -118.5t-180.5 -42.5q-134 0 -211 71t-77 199q0 36 8 84l119 666h218l-110 -624q-6 -36 -6 -63q0 -76 41 -112t109 -36q104 0 180 65t97 180h1z" />
    <glyph glyph-name="uni01D5" unicode="&#x1d5;" horiz-adv-x="1397" 
d="M624 1953l24 140h656l-25 -140h-655zM687 1563q-51 0 -81.5 36.5t-21.5 88.5q10 51 53.5 87.5t93.5 36.5q51 0 81.5 -36.5t20.5 -87.5q-8 -51 -51.5 -88t-94.5 -37zM1079 1563q-51 0 -81 36.5t-22 88.5q10 51 53 87.5t94 36.5t81.5 -36.5t20.5 -87.5q-9 -52 -52 -88.5
t-94 -36.5zM618 -19q-211 0 -339.5 105.5t-128.5 297.5q0 55 10 106l165 932h227l-161 -916q-9 -50 -9 -90q0 -117 65.5 -174.5t177.5 -57.5q142 0 247 86.5t135 250.5l159 901h228l-167 -948q-22 -121 -79 -216.5t-138.5 -155t-181 -90.5t-210.5 -31z" />
    <glyph glyph-name="uni01D6" unicode="&#x1d6;" horiz-adv-x="1140" 
d="M478 1810h656l-25 -140h-655zM509 1217q-59 0 -96.5 41.5t-30.5 99.5q6 58 52.5 99t105.5 41q57 0 93.5 -41t31.5 -99q-6 -58 -52.5 -99.5t-103.5 -41.5zM1067 1358q-6 -58 -52 -99.5t-103 -41.5q-59 0 -96.5 41.5t-30.5 99.5q6 58 52.5 99t104.5 41q57 0 94 -41t31 -99z
M752 411l104 590h218l-177 -1001h-207l19 142q-62 -76 -145.5 -118.5t-180.5 -42.5q-134 0 -211 71t-77 199q0 36 8 84l119 666h218l-110 -624q-6 -36 -6 -63q0 -76 41 -112t109 -36q104 0 180 65t97 180h1z" />
    <glyph glyph-name="uni01D7" unicode="&#x1d7;" horiz-adv-x="1397" 
d="M873 1953l319 347l101 -84l-271 -263h-149zM687 1563q-51 0 -81.5 36.5t-21.5 88.5q10 51 53.5 87.5t93.5 36.5q51 0 81.5 -36.5t20.5 -87.5q-8 -51 -51.5 -88t-94.5 -37zM1079 1563q-51 0 -81 36.5t-22 88.5q10 51 53 87.5t94 36.5t81.5 -36.5t20.5 -87.5
q-9 -52 -52 -88.5t-94 -36.5zM618 -19q-211 0 -339.5 105.5t-128.5 297.5q0 55 10 106l165 932h227l-161 -916q-9 -50 -9 -90q0 -117 65.5 -174.5t177.5 -57.5q142 0 247 86.5t135 250.5l159 901h228l-167 -948q-22 -121 -79 -216.5t-138.5 -155t-181 -90.5t-210.5 -31z" />
    <glyph glyph-name="uni01D8" unicode="&#x1d8;" horiz-adv-x="1140" 
d="M1118 1907l-273 -264h-148l318 348zM509 1217q-59 0 -96.5 41.5t-30.5 99.5q6 58 52.5 99t105.5 41q57 0 93.5 -41t31.5 -99q-6 -58 -52.5 -99.5t-103.5 -41.5zM785 1358q6 58 52.5 99t104.5 41q57 0 94 -41t31 -99t-52 -99.5t-103 -41.5q-59 0 -96.5 41.5t-30.5 99.5z
M752 411l104 590h218l-177 -1001h-207l19 142q-62 -76 -145.5 -118.5t-180.5 -42.5q-134 0 -211 71t-77 199q0 36 8 84l119 666h218l-110 -624q-6 -36 -6 -63q0 -76 41 -112t109 -36q104 0 180 65t97 180h1z" />
    <glyph glyph-name="uni01D9" unicode="&#x1d9;" horiz-adv-x="1397" 
d="M876 1953l-167 297h147l110 -211l183 211h149l-272 -297h-150zM687 1563q-51 0 -81.5 36.5t-21.5 88.5q10 51 53.5 87.5t93.5 36.5q51 0 81.5 -36.5t20.5 -87.5q-8 -51 -51.5 -88t-94.5 -37zM1079 1563q-51 0 -81 36.5t-22 88.5q10 51 53 87.5t94 36.5t81.5 -36.5
t20.5 -87.5q-9 -52 -52 -88.5t-94 -36.5zM618 -19q-211 0 -339.5 105.5t-128.5 297.5q0 55 10 106l165 932h227l-161 -916q-9 -50 -9 -90q0 -117 65.5 -174.5t177.5 -57.5q142 0 247 86.5t135 250.5l159 901h228l-167 -948q-22 -121 -79 -216.5t-138.5 -155t-181 -90.5
t-210.5 -31z" />
    <glyph glyph-name="uni01DA" unicode="&#x1da;" horiz-adv-x="1140" 
d="M855 1668h-151l-167 297h148l109 -211l184 211h148zM509 1217q-59 0 -96.5 41.5t-30.5 99.5q6 58 52.5 99t105.5 41q57 0 93.5 -41t31.5 -99q-6 -58 -52.5 -99.5t-103.5 -41.5zM785 1358q6 58 52.5 99t104.5 41q57 0 94 -41t31 -99t-52 -99.5t-103 -41.5
q-59 0 -96.5 41.5t-30.5 99.5zM752 411l104 590h218l-177 -1001h-207l19 142q-62 -76 -145.5 -118.5t-180.5 -42.5q-134 0 -211 71t-77 199q0 36 8 84l119 666h218l-110 -624q-6 -36 -6 -63q0 -76 41 -112t109 -36q104 0 180 65t97 180h1z" />
    <glyph glyph-name="uni01DB" unicode="&#x1db;" horiz-adv-x="1397" 
d="M878 1953l-179 263l132 84l195 -347h-148zM687 1563q-51 0 -81.5 36.5t-21.5 88.5q10 51 53.5 87.5t93.5 36.5q51 0 81.5 -36.5t20.5 -87.5q-8 -51 -51.5 -88t-94.5 -37zM1079 1563q-51 0 -81 36.5t-22 88.5q10 51 53 87.5t94 36.5t81.5 -36.5t20.5 -87.5
q-9 -52 -52 -88.5t-94 -36.5zM618 -19q-211 0 -339.5 105.5t-128.5 297.5q0 55 10 106l165 932h227l-161 -916q-9 -50 -9 -90q0 -117 65.5 -174.5t177.5 -57.5q142 0 247 86.5t135 250.5l159 901h228l-167 -948q-22 -121 -79 -216.5t-138.5 -155t-181 -90.5t-210.5 -31z" />
    <glyph glyph-name="uni01DC" unicode="&#x1dc;" horiz-adv-x="1140" 
d="M849 1643h-148l-179 264l131 84zM509 1217q-59 0 -96.5 41.5t-30.5 99.5q6 58 52.5 99t105.5 41q57 0 93.5 -41t31.5 -99q-6 -58 -52.5 -99.5t-103.5 -41.5zM785 1358q6 58 52.5 99t104.5 41q57 0 94 -41t31 -99t-52 -99.5t-103 -41.5q-59 0 -96.5 41.5t-30.5 99.5z
M856 1001h218l-177 -1001h-207l19 142q-62 -76 -145.5 -118.5t-180.5 -42.5q-134 0 -211 71t-77 199q0 36 8 84l119 666h218l-110 -624q-6 -36 -6 -63q0 -76 41 -112t109 -36q104 0 180 65t97 180h1z" />
    <glyph glyph-name="Scommaaccent" unicode="&#x218;" horiz-adv-x="1256" 
d="M591 -19q-234 0 -382.5 107.5t-151.5 290.5l239 41q6 -116 89 -182.5t219 -66.5t223 63t87 165q0 45 -18.5 81.5t-41 58.5t-71.5 44.5t-78.5 32t-93.5 28.5q-7 2 -10 3q-49 14 -82 25t-77.5 29.5t-73.5 37t-60.5 47t-50 60.5t-30.5 75.5t-12 94.5q0 187 149.5 306.5
t373.5 119.5q99 0 187 -22t159.5 -65t114.5 -114.5t47 -162.5l-224 -42q-4 109 -81.5 162t-195.5 53q-128 0 -215 -62t-87 -153q0 -30 8.5 -55t19.5 -43t34.5 -35t42 -27.5t54 -23t56.5 -19t64 -18.5q53 -15 87.5 -25.5t84 -30t81.5 -39t68 -50t57 -64.5t35 -81.5t14 -102.5
q0 -137 -74 -238t-199 -152t-285 -51zM291 -566l-107 53l229 370h205z" />
    <glyph glyph-name="scommaaccent" unicode="&#x219;" horiz-adv-x="937" 
d="M397 -19q-173 0 -270.5 75t-98.5 209l202 40q-3 -80 46 -125.5t133 -45.5t141.5 44t57.5 123q0 26 -10.5 46.5t-24.5 33.5t-44.5 25.5t-55.5 20t-71 19.5q-48 13 -82 24.5t-72 32t-61 45t-38.5 62.5t-15.5 85q0 153 114 238.5t287 85.5q99 0 176 -27.5t125.5 -89.5
t49.5 -152l-186 -30q2 76 -44 111.5t-117 35.5q-83 0 -140 -42t-57 -113q0 -23 9.5 -41.5t24.5 -30t39.5 -21.5t47.5 -16.5t57 -14.5q11 -3 17 -4q65 -17 109 -34t88.5 -47t67 -76t22.5 -108q0 -161 -119.5 -249.5t-306.5 -88.5zM134 -565l-107 53l229 370h205z" />
    <glyph glyph-name="uni021A" unicode="&#x21a;" horiz-adv-x="1008" 
d="M1134 1422l-36 -202h-355l-215 -1220h-225l215 1220h-355l36 202h935zM59 -513l229 370h205l-327 -423z" />
    <glyph glyph-name="uni021B" unicode="&#x21b;" horiz-adv-x="717" 
d="M414 0q-115 0 -180 60.5t-65 167.5q0 33 7 68l95 534h-202l30 171h63q72 0 122 41t63 117l30 171h202l-58 -329h220l-29 -171h-222l-93 -526q-3 -15 -3 -40q0 -94 103 -94h98l-31 -170h-150zM203 -566l-107 53l229 370h205z" />
    <glyph glyph-name="uni0237" unicode="&#x237;" horiz-adv-x="541" 
d="M-228 -471l30 186q69 0 112.5 15t74 55t48 96.5t34.5 151.5l172 973h233l-174 -990q-47 -264 -167 -375.5t-363 -111.5z" />
    <glyph glyph-name="circumflex" unicode="&#x2c6;" horiz-adv-x="685" 
d="M326 1239h-148l272 297h150l167 -297h-149l-109 210z" />
    <glyph glyph-name="caron" unicode="&#x2c7;" horiz-adv-x="692" 
d="M400 1239l-167 297h148l109 -211l184 211h148l-271 -297h-151z" />
    <glyph glyph-name="breve" unicode="&#x2d8;" horiz-adv-x="884" 
d="M563 1202q-158 0 -239.5 88.5t-53.5 245.5h137q-17 -97 32 -159t144 -62q96 0 167.5 62t88.5 159h136q-28 -157 -140.5 -245.5t-271.5 -88.5z" />
    <glyph glyph-name="dotaccent" unicode="&#x2d9;" horiz-adv-x="515" 
d="M394 1222q-58 0 -95 41t-32 100q6 58 52.5 99t105.5 41q57 0 94.5 -41t30.5 -99q-6 -58 -52.5 -99.5t-103.5 -41.5z" />
    <glyph glyph-name="ring" unicode="&#x2da;" horiz-adv-x="648" 
d="M447 1147q-93 0 -152.5 66t-50.5 159q11 92 84 157.5t167 65.5q92 0 150 -65.5t47 -157.5q-9 -92 -81.5 -158.5t-163.5 -66.5zM458 1250q52 0 90 34.5t43 87.5q5 51 -26 87.5t-81 36.5q-51 0 -90 -36.5t-45 -87.5q-5 -54 26 -88t83 -34z" />
    <glyph glyph-name="ogonek" unicode="&#x2db;" horiz-adv-x="503" 
d="M88 -406q-86 0 -130.5 26.5t-36.5 75.5q20 111 297 334l67 -30q-198 -159 -209 -224q-4 -20 11 -29.5t49 -9.5q61 0 109 35l-28 -155q-62 -23 -129 -23z" />
    <glyph glyph-name="tilde" unicode="&#x2dc;" horiz-adv-x="850" 
d="M662 1153q-107 0 -153 99q-20 45 -60 45q-38 0 -65 -36t-37 -95h-117q19 109 83 177.5t152 68.5q107 0 150 -100q20 -44 64 -44q37 0 62.5 34.5t36.5 95.5h118q-19 -107 -82.5 -176t-151.5 -69z" />
    <glyph glyph-name="hungarumlaut" unicode="&#x2dd;" horiz-adv-x="835" 
d="M153 1214l318 348l103 -84l-273 -264h-148zM521 1214l319 348l102 -84l-272 -264h-149z" />
    <glyph glyph-name="gravecomb" unicode="&#x300;" 
d="M-60 1214l-179 264l131 84l196 -348h-148z" />
    <glyph glyph-name="acutecomb" unicode="&#x301;" 
d="M-304 1214l318 348l103 -84l-273 -264h-148z" />
    <glyph glyph-name="uni0302" unicode="&#x302;" 
d="M-359 1239h-148l272 297h150l167 -297h-149l-109 210z" />
    <glyph glyph-name="tildecomb" unicode="&#x303;" 
d="M-188 1153q-107 0 -153 99q-20 45 -60 45q-38 0 -65 -36t-37 -95h-117q19 109 83 177.5t152 68.5q107 0 150 -100q20 -44 64 -44q37 0 62.5 34.5t36.5 95.5h118q-19 -107 -82.5 -176t-151.5 -69z" />
    <glyph glyph-name="uni0304" unicode="&#x304;" 
d="M-673 1241l24 140h656l-25 -140h-655z" />
    <glyph glyph-name="uni0306" unicode="&#x306;" 
d="M-321 1202q-158 0 -239.5 88.5t-53.5 245.5h137q-17 -97 32 -159t144 -62q96 0 167.5 62t88.5 159h136q-28 -157 -140.5 -245.5t-271.5 -88.5z" />
    <glyph glyph-name="uni0307" unicode="&#x307;" 
d="M-120 1222q-58 0 -95 41t-32 100q6 58 52.5 99t105.5 41q57 0 94.5 -41t30.5 -99q-6 -58 -52.5 -99.5t-103.5 -41.5z" />
    <glyph glyph-name="uni0308" unicode="&#x308;" 
d="M-523 1222q-59 0 -96.5 41.5t-30.5 99.5q6 58 52.5 99t105.5 41q57 0 93.5 -41t31.5 -99q-6 -58 -52.5 -99.5t-103.5 -41.5zM-120 1222q-59 0 -96.5 41.5t-30.5 99.5q6 58 52.5 99t104.5 41q57 0 94 -41t31 -99t-52 -99.5t-103 -41.5z" />
    <glyph glyph-name="hookabovecomb" unicode="&#x309;" 
d="M-219 1148l22 127q119 22 133 103q6 34 -10.5 55.5t-53.5 21.5q-47 0 -92 -35l-45 83q74 53 163 53q86 0 130 -47.5t30 -124.5q-20 -117 -155 -156l-15 -80h-107z" />
    <glyph glyph-name="uni030A" unicode="&#x30a;" 
d="M-193 1147q-93 0 -152.5 66t-50.5 159q11 92 84 157.5t167 65.5q92 0 150 -65.5t47 -157.5q-9 -92 -81.5 -158.5t-163.5 -66.5zM-182 1250q52 0 90 34.5t43 87.5q5 51 -26 87.5t-81 36.5q-51 0 -90 -36.5t-45 -87.5q-5 -54 26 -88t83 -34z" />
    <glyph glyph-name="uni030B" unicode="&#x30b;" 
d="M-673 1214l318 348l103 -84l-273 -264h-148zM-305 1214l319 348l102 -84l-272 -264h-149z" />
    <glyph glyph-name="uni030C" unicode="&#x30c;" 
d="M-292 1239l-167 297h148l109 -211l184 211h148l-271 -297h-151z" />
    <glyph glyph-name="uni0312" unicode="&#x312;" 
d="M136 1531l-293 -316h-241l364 316h170z" />
    <glyph glyph-name="uni031B" unicode="&#x31b;" 
d="M-260 773q-92 0 -179 60l61 77q48 -28 95 -28q53 0 80 34t40 112l20 115h125l-24 -137q-41 -233 -218 -233z" />
    <glyph glyph-name="dotbelowcomb" unicode="&#x323;" 
d="M-435 -512q-59 0 -93.5 41t-24.5 100q11 58 60 99.5t107 41.5q57 0 91.5 -41.5t24.5 -99.5q-10 -59 -59 -100t-106 -41z" />
    <glyph glyph-name="uni0326" unicode="&#x326;" 
d="M-484 -566l-107 53l229 370h205z" />
    <glyph glyph-name="uni0327" unicode="&#x327;" 
d="M-471 -532q-79 0 -137.5 40t-75.5 101l113 40q13 -31 46 -50.5t69 -19.5q44 0 80.5 30t44.5 76q9 48 -17.5 75t-74.5 27q-46 0 -82 -26l-80 56l155 221h115l-117 -168q34 6 51 6q85 0 131.5 -53.5t32.5 -137.5q-17 -91 -90 -154t-164 -63z" />
    <glyph glyph-name="uni0328" unicode="&#x328;" 
d="M-406 -406q-86 0 -130.5 26.5t-36.5 75.5q20 111 297 334l67 -30q-198 -159 -209 -224q-4 -20 11 -29.5t49 -9.5q61 0 109 35l-28 -155q-62 -23 -129 -23z" />
    <glyph glyph-name="uni0335" unicode="&#x335;" 
d="M-807 451l26 145h648l-26 -145h-648z" />
    <glyph glyph-name="uni0336" unicode="&#x336;" 
d="M-1645 480l19 105h1491l-19 -105h-1491z" />
    <glyph glyph-name="uni0337" unicode="&#x337;" 
d="M-673 261l28 155l664 438l-27 -156z" />
    <glyph glyph-name="uni0338" unicode="&#x338;" 
d="M-765 210l809 1160l100 -60l-809 -1160z" />
    <glyph glyph-name="uni0394" unicode="&#x394;" horiz-adv-x="1545" 
d="M1079 1536l345 -1536h-1482l887 1536h250zM309 215h832l-227 1071z" />
    <glyph glyph-name="uni03A9" unicode="&#x3a9;" horiz-adv-x="1781" 
d="M1702 941q0 -197 -111.5 -407.5t-288.5 -334.5h322l-35 -199h-645l21 161q143 71 253.5 200.5t167.5 279.5t57 297q0 116 -40.5 206.5t-128.5 146t-213 55.5q-115 0 -217 -43t-174.5 -115t-125.5 -165.5t-79 -196t-26 -203.5q0 -166 67.5 -288.5t175.5 -181.5l-20 -153
h-649l35 199h326l8 9q-80 73 -135.5 200.5t-55.5 280.5q0 125 37.5 248t113 233t179 194t244.5 133.5t300 49.5q155 0 279 -50t201 -135t117 -192.5t40 -228.5z" />
    <glyph glyph-name="uni03BC" unicode="&#x3bc;" horiz-adv-x="1208" 
d="M912 1006h231l-177 -1006h-231l20 112q-133 -130 -299 -130q-124 0 -212 71l-89 -507h-170l257 1460h231l-107 -614q-5 -19 -5 -42q0 -74 46 -120.5t119 -46.5q94 0 174 60.5t104 146.5z" />
    <glyph glyph-name="pi" unicode="&#x3c0;" horiz-adv-x="1261" 
d="M50 1q76 144 161 394t131 440q-157 -1 -238 -23l-13 141q89 53 337 53h901l-48 -172h-166l-91 -552q-33 -212 -24 -283l-201 2q-12 32 -12 83q0 64 22 198l90 552h-354q-45 -207 -128 -465t-155 -370z" />
    <glyph glyph-name="Wgrave" unicode="&#x1e80;" horiz-adv-x="2067" 
d="M1145 1563l-179 263l132 84l195 -347h-148zM350 0l-142 1422h231l111 -1133l543 1133h196l136 -1133l519 1133h239l-643 -1422h-280l-136 1008l-493 -1008h-281z" />
    <glyph glyph-name="wgrave" unicode="&#x1e81;" horiz-adv-x="1636" 
d="M1014 1156h-148l-179 264l131 84zM1478 1001h231l-524 -1002h-201l-126 726l-385 -726h-203l-165 1002h225l103 -719l384 719h169l129 -720z" />
    <glyph glyph-name="Wacute" unicode="&#x1e82;" horiz-adv-x="2067" 
d="M1140 1563l319 347l101 -84l-271 -263h-149zM350 0l-142 1422h231l111 -1133l543 1133h196l136 -1133l519 1133h239l-643 -1422h-280l-136 1008l-493 -1008h-281z" />
    <glyph glyph-name="wacute" unicode="&#x1e83;" horiz-adv-x="1636" 
d="M1283 1420l-273 -264h-148l318 348zM1478 1001h231l-524 -1002h-201l-126 726l-385 -726h-203l-165 1002h225l103 -719l384 719h169l129 -720z" />
    <glyph glyph-name="Wdieresis" unicode="&#x1e84;" horiz-adv-x="2067" 
d="M1023 1563q-51 0 -81.5 36.5t-21.5 88.5q10 51 53.5 87.5t93.5 36.5q51 0 81.5 -36.5t20.5 -87.5q-8 -51 -51.5 -88t-94.5 -37zM1415 1563q-51 0 -81 36.5t-22 88.5q10 51 53 87.5t94 36.5t81.5 -36.5t20.5 -87.5q-9 -52 -52 -88.5t-94 -36.5zM350 0l-142 1422h231
l111 -1133l543 1133h196l136 -1133l519 1133h239l-643 -1422h-280l-136 1008l-493 -1008h-281z" />
    <glyph glyph-name="wdieresis" unicode="&#x1e85;" horiz-adv-x="1636" 
d="M760 1217q-59 0 -96.5 41.5t-30.5 99.5q6 58 52.5 99t105.5 41q57 0 93.5 -41t31.5 -99q-6 -58 -52.5 -99.5t-103.5 -41.5zM1163 1217q-59 0 -96.5 41.5t-30.5 99.5q6 58 52.5 99t104.5 41q57 0 94 -41t31 -99t-52 -99.5t-103 -41.5zM1478 1001h231l-524 -1002h-201
l-126 726l-385 -726h-203l-165 1002h225l103 -719l384 719h169l129 -720z" />
    <glyph glyph-name="uni1EA0" unicode="&#x1ea0;" horiz-adv-x="1392" 
d="M1269 0h-233l-57 322h-626l-171 -322h-237l774 1422h275zM457 517h487l-122 685zM567 -230q57 0 91.5 -41.5t24.5 -99.5q-10 -59 -59 -100t-106 -41q-59 0 -93.5 41t-24.5 100q11 58 60 99.5t107 41.5z" />
    <glyph glyph-name="uni1EA1" unicode="&#x1ea1;" horiz-adv-x="1253" 
d="M969 1001h218l-177 -1001h-200l16 162q-60 -87 -155.5 -136t-202.5 -49q-179 0 -292 114.5t-113 309.5q0 114 41 225t112.5 198.5t178 141.5t227.5 54q117 0 201.5 -52t115.5 -141zM528 164q82 0 154.5 38.5t120 98t74.5 131t27 139.5q0 115 -66.5 190t-181.5 75
q-108 0 -195 -63t-131.5 -157t-44.5 -194q0 -119 66.5 -188.5t176.5 -69.5zM487 -230q57 0 91.5 -41.5t24.5 -99.5q-10 -59 -59 -100t-106 -41q-59 0 -93.5 41t-24.5 100q11 58 60 99.5t107 41.5z" />
    <glyph glyph-name="uni1EA2" unicode="&#x1ea2;" horiz-adv-x="1392" 
d="M918 1839q-48 0 -93 -35l-45 83q75 54 163 54q87 0 130.5 -47.5t30.5 -124.5q-20 -118 -157 -157l-13 -80h-108l23 127q119 22 133 103q6 34 -10.5 55.5t-53.5 21.5zM1036 0l-57 322h-626l-171 -322h-237l774 1422h275l275 -1422h-233zM457 517h487l-122 685z" />
    <glyph glyph-name="uni1EA3" unicode="&#x1ea3;" horiz-adv-x="1253" 
d="M771 1402q-47 0 -92 -35l-45 83q74 53 163 53q86 0 130 -47.5t30 -124.5q-20 -117 -155 -156l-15 -80h-107l22 127q119 22 133 103q6 34 -10.5 55.5t-53.5 21.5zM969 1001h218l-177 -1001h-200l16 162q-60 -87 -155.5 -136t-202.5 -49q-179 0 -292 114.5t-113 309.5
q0 114 41 225t112.5 198.5t178 141.5t227.5 54q117 0 201.5 -52t115.5 -141zM528 164q82 0 154.5 38.5t120 98t74.5 131t27 139.5q0 115 -66.5 190t-181.5 75q-108 0 -195 -63t-131.5 -157t-44.5 -194q0 -119 66.5 -188.5t176.5 -69.5z" />
    <glyph glyph-name="uni1EA4" unicode="&#x1ea4;" horiz-adv-x="1392" 
d="M1301 2264l-271 -263h-149l319 347zM918 1773l-183 -210h-147l271 297h150l167 -297h-148zM719 1422h275l275 -1422h-233l-57 322h-626l-171 -322h-237zM457 517h487l-122 685z" />
    <glyph glyph-name="uni1EA5" unicode="&#x1ea5;" horiz-adv-x="1253" 
d="M1169 1902l-273 -264h-148l318 348zM784 1396l-183 -210h-148l272 297h150l167 -297h-149zM969 1001h218l-177 -1001h-200l16 162q-60 -87 -155.5 -136t-202.5 -49q-179 0 -292 114.5t-113 309.5q0 114 41 225t112.5 198.5t178 141.5t227.5 54q117 0 201.5 -52
t115.5 -141zM528 164q82 0 154.5 38.5t120 98t74.5 131t27 139.5q0 115 -66.5 190t-181.5 75q-108 0 -195 -63t-131.5 -157t-44.5 -194q0 -119 66.5 -188.5t176.5 -69.5z" />
    <glyph glyph-name="uni1EA6" unicode="&#x1ea6;" horiz-adv-x="1392" 
d="M1034 2001h-148l-179 263l132 84zM918 1773l-183 -210h-147l271 297h150l167 -297h-148zM1036 0l-57 322h-626l-171 -322h-237l774 1422h275l275 -1422h-233zM457 517h487l-122 685z" />
    <glyph glyph-name="uni1EA7" unicode="&#x1ea7;" horiz-adv-x="1253" 
d="M900 1638h-148l-179 264l131 84zM784 1396l-183 -210h-148l272 297h150l167 -297h-149zM969 1001h218l-177 -1001h-200l16 162q-60 -87 -155.5 -136t-202.5 -49q-179 0 -292 114.5t-113 309.5q0 114 41 225t112.5 198.5t178 141.5t227.5 54q117 0 201.5 -52t115.5 -141z
M528 164q82 0 154.5 38.5t120 98t74.5 131t27 139.5q0 115 -66.5 190t-181.5 75q-108 0 -195 -63t-131.5 -157t-44.5 -194q0 -119 66.5 -188.5t176.5 -69.5z" />
    <glyph glyph-name="uni1EA8" unicode="&#x1ea8;" horiz-adv-x="1392" 
d="M995 2277q-48 0 -93 -35l-45 83q75 54 163 54q87 0 130.5 -47.5t30.5 -124.5q-20 -118 -157 -157l-13 -80h-108l23 127q119 22 133 103q6 34 -10.5 55.5t-53.5 21.5zM918 1773l-183 -210h-147l271 297h150l167 -297h-148zM1036 0l-57 322h-626l-171 -322h-237l774 1422
h275l275 -1422h-233zM457 517h487l-122 685z" />
    <glyph glyph-name="uni1EA9" unicode="&#x1ea9;" horiz-adv-x="1253" 
d="M854 1879q-47 0 -92 -35l-45 83q74 53 163 53q86 0 130 -47.5t30 -124.5q-20 -117 -155 -156l-15 -80h-107l22 127q119 22 133 103q6 34 -10.5 55.5t-53.5 21.5zM784 1396l-183 -210h-148l272 297h150l167 -297h-149zM969 1001h218l-177 -1001h-200l16 162
q-60 -87 -155.5 -136t-202.5 -49q-179 0 -292 114.5t-113 309.5q0 114 41 225t112.5 198.5t178 141.5t227.5 54q117 0 201.5 -52t115.5 -141zM528 164q82 0 154.5 38.5t120 98t74.5 131t27 139.5q0 115 -66.5 190t-181.5 75q-108 0 -195 -63t-131.5 -157t-44.5 -194
q0 -119 66.5 -188.5t176.5 -69.5z" />
    <glyph glyph-name="uni1EAA" unicode="&#x1eaa;" horiz-adv-x="1392" 
d="M1249 2266h124q-22 -120 -92.5 -196.5t-171.5 -76.5q-121 0 -172 113q-25 55 -76 55q-45 0 -78.5 -42.5t-45.5 -110.5h-123q22 121 94 197.5t170 76.5q118 0 171 -113q26 -55 78 -55q45 0 77 41t45 111zM918 1773l-183 -210h-147l271 297h150l167 -297h-148zM719 1422
h275l275 -1422h-233l-57 322h-626l-171 -322h-237zM457 517h487l-122 685z" />
    <glyph glyph-name="uni1EAB" unicode="&#x1eab;" horiz-adv-x="1253" 
d="M743 1774q-38 0 -65 -36t-37 -95h-117q19 109 83 177.5t152 68.5q107 0 150 -100q20 -44 64 -44q37 0 62.5 34.5t36.5 95.5h118q-19 -107 -82.5 -176t-151.5 -69q-107 0 -153 99q-20 45 -60 45zM784 1396l-183 -210h-148l272 297h150l167 -297h-149zM939 827l30 174h218
l-177 -1001h-200l16 162q-60 -87 -155.5 -136t-202.5 -49q-179 0 -292 114.5t-113 309.5q0 114 41 225t112.5 198.5t178 141.5t227.5 54q117 0 201.5 -52t115.5 -141zM528 164q82 0 154.5 38.5t120 98t74.5 131t27 139.5q0 115 -66.5 190t-181.5 75q-108 0 -195 -63
t-131.5 -157t-44.5 -194q0 -119 66.5 -188.5t176.5 -69.5z" />
    <glyph glyph-name="uni1EAC" unicode="&#x1eac;" horiz-adv-x="1392" 
d="M918 1773l-183 -210h-147l271 297h150l167 -297h-148zM1269 0h-233l-57 322h-626l-171 -322h-237l774 1422h275zM457 517h487l-122 685zM567 -230q57 0 91.5 -41.5t24.5 -99.5q-10 -59 -59 -100t-106 -41q-59 0 -93.5 41t-24.5 100q11 58 60 99.5t107 41.5z" />
    <glyph glyph-name="uni1EAD" unicode="&#x1ead;" horiz-adv-x="1253" 
d="M784 1396l-183 -210h-148l272 297h150l167 -297h-149zM969 1001h218l-177 -1001h-200l16 162q-60 -87 -155.5 -136t-202.5 -49q-179 0 -292 114.5t-113 309.5q0 114 41 225t112.5 198.5t178 141.5t227.5 54q117 0 201.5 -52t115.5 -141zM528 164q82 0 154.5 38.5t120 98
t74.5 131t27 139.5q0 115 -66.5 190t-181.5 75q-108 0 -195 -63t-131.5 -157t-44.5 -194q0 -119 66.5 -188.5t176.5 -69.5zM487 -230q57 0 91.5 -41.5t24.5 -99.5q-10 -59 -59 -100t-106 -41q-59 0 -93.5 41t-24.5 100q11 58 60 99.5t107 41.5z" />
    <glyph glyph-name="uni1EAE" unicode="&#x1eae;" horiz-adv-x="1392" 
d="M1300 2249l-271 -263h-149l319 347zM902 1675q101 0 166.5 42t80.5 128h136q-27 -146 -133 -214t-270 -68q-163 0 -245 68.5t-56 213.5h136q-15 -85 35 -127.5t150 -42.5zM719 1422h275l275 -1422h-233l-57 322h-626l-171 -322h-237zM457 517h487l-122 685z" />
    <glyph glyph-name="uni1EAF" unicode="&#x1eaf;" horiz-adv-x="1253" 
d="M1170 1902l-273 -264h-148l318 348zM740 1149q-158 0 -239.5 88.5t-53.5 245.5h137q-17 -97 32 -159t144 -62q96 0 167.5 62t88.5 159h136q-28 -157 -140.5 -245.5t-271.5 -88.5zM969 1001h218l-177 -1001h-200l16 162q-60 -87 -155.5 -136t-202.5 -49q-179 0 -292 114.5
t-113 309.5q0 114 41 225t112.5 198.5t178 141.5t227.5 54q117 0 201.5 -52t115.5 -141zM528 164q82 0 154.5 38.5t120 98t74.5 131t27 139.5q0 115 -66.5 190t-181.5 75q-108 0 -195 -63t-131.5 -157t-44.5 -194q0 -119 66.5 -188.5t176.5 -69.5z" />
    <glyph glyph-name="uni1EB0" unicode="&#x1eb0;" horiz-adv-x="1392" 
d="M1033 1986h-148l-179 263l132 84zM882 1563q-163 0 -245 68.5t-56 213.5h136q-15 -85 35 -127.5t150 -42.5q101 0 166.5 42t80.5 128h136q-27 -146 -133 -214t-270 -68zM719 1422h275l275 -1422h-233l-57 322h-626l-171 -322h-237zM457 517h487l-122 685z" />
    <glyph glyph-name="uni1EB1" unicode="&#x1eb1;" horiz-adv-x="1253" 
d="M901 1638h-148l-179 264l131 84zM740 1149q-158 0 -239.5 88.5t-53.5 245.5h137q-17 -97 32 -159t144 -62q96 0 167.5 62t88.5 159h136q-28 -157 -140.5 -245.5t-271.5 -88.5zM969 1001h218l-177 -1001h-200l16 162q-60 -87 -155.5 -136t-202.5 -49q-179 0 -292 114.5
t-113 309.5q0 114 41 225t112.5 198.5t178 141.5t227.5 54q117 0 201.5 -52t115.5 -141zM528 164q82 0 154.5 38.5t120 98t74.5 131t27 139.5q0 115 -66.5 190t-181.5 75q-108 0 -195 -63t-131.5 -157t-44.5 -194q0 -119 66.5 -188.5t176.5 -69.5z" />
    <glyph glyph-name="uni1EB2" unicode="&#x1eb2;" horiz-adv-x="1392" 
d="M994 2262q-48 0 -93 -35l-45 83q75 54 163 54q87 0 130.5 -47.5t30.5 -124.5q-20 -118 -157 -157l-13 -80h-108l23 127q119 22 133 103q6 34 -10.5 55.5t-53.5 21.5zM882 1563q-163 0 -245 68.5t-56 213.5h136q-15 -85 35 -127.5t150 -42.5q101 0 166.5 42t80.5 128h136
q-27 -146 -133 -214t-270 -68zM719 1422h275l275 -1422h-233l-57 322h-626l-171 -322h-237zM457 517h487l-122 685z" />
    <glyph glyph-name="uni1EB3" unicode="&#x1eb3;" horiz-adv-x="1253" 
d="M855 1879q-47 0 -92 -35l-45 83q74 53 163 53q86 0 130 -47.5t30 -124.5q-20 -117 -155 -156l-15 -80h-107l22 127q119 22 133 103q6 34 -10.5 55.5t-53.5 21.5zM740 1149q-158 0 -239.5 88.5t-53.5 245.5h137q-17 -97 32 -159t144 -62q96 0 167.5 62t88.5 159h136
q-28 -157 -140.5 -245.5t-271.5 -88.5zM969 1001h218l-177 -1001h-200l16 162q-60 -87 -155.5 -136t-202.5 -49q-179 0 -292 114.5t-113 309.5q0 114 41 225t112.5 198.5t178 141.5t227.5 54q117 0 201.5 -52t115.5 -141zM528 164q82 0 154.5 38.5t120 98t74.5 131t27 139.5
q0 115 -66.5 190t-181.5 75q-108 0 -195 -63t-131.5 -157t-44.5 -194q0 -119 66.5 -188.5t176.5 -69.5z" />
    <glyph glyph-name="uni1EB4" unicode="&#x1eb4;" horiz-adv-x="1392" 
d="M860 2146q-45 0 -78.5 -42.5t-45.5 -110.5h-123q22 121 94 197.5t170 76.5q118 0 171 -113q26 -55 78 -55q45 0 77 41t45 111h124q-22 -120 -92.5 -196.5t-171.5 -76.5q-121 0 -172 113q-25 55 -76 55zM902 1675q101 0 166.5 42t80.5 128h136q-27 -146 -133 -214
t-270 -68q-163 0 -245 68.5t-56 213.5h136q-15 -85 35 -127.5t150 -42.5zM719 1422h275l275 -1422h-233l-57 322h-626l-171 -322h-237zM457 517h487l-122 685z" />
    <glyph glyph-name="uni1EB5" unicode="&#x1eb5;" horiz-adv-x="1253" 
d="M744 1774q-38 0 -65 -36t-37 -95h-117q19 109 83 177.5t152 68.5q107 0 150 -100q20 -44 64 -44q37 0 62.5 34.5t36.5 95.5h118q-19 -107 -82.5 -176t-151.5 -69q-107 0 -153 99q-20 45 -60 45zM740 1149q-158 0 -239.5 88.5t-53.5 245.5h137q-17 -97 32 -159t144 -62
q96 0 167.5 62t88.5 159h136q-28 -157 -140.5 -245.5t-271.5 -88.5zM939 827l30 174h218l-177 -1001h-200l16 162q-60 -87 -155.5 -136t-202.5 -49q-179 0 -292 114.5t-113 309.5q0 114 41 225t112.5 198.5t178 141.5t227.5 54q117 0 201.5 -52t115.5 -141zM528 164
q82 0 154.5 38.5t120 98t74.5 131t27 139.5q0 115 -66.5 190t-181.5 75q-108 0 -195 -63t-131.5 -157t-44.5 -194q0 -119 66.5 -188.5t176.5 -69.5z" />
    <glyph glyph-name="uni1EB6" unicode="&#x1eb6;" horiz-adv-x="1392" 
d="M882 1563q-163 0 -245 68.5t-56 213.5h136q-15 -85 35 -127.5t150 -42.5q101 0 166.5 42t80.5 128h136q-27 -146 -133 -214t-270 -68zM719 1422h275l275 -1422h-233l-57 322h-626l-171 -322h-237zM457 517h487l-122 685zM567 -230q57 0 91.5 -41.5t24.5 -99.5
q-10 -59 -59 -100t-106 -41q-59 0 -93.5 41t-24.5 100q11 58 60 99.5t107 41.5z" />
    <glyph glyph-name="uni1EB7" unicode="&#x1eb7;" horiz-adv-x="1253" 
d="M740 1149q-158 0 -239.5 88.5t-53.5 245.5h137q-17 -97 32 -159t144 -62q96 0 167.5 62t88.5 159h136q-28 -157 -140.5 -245.5t-271.5 -88.5zM969 1001h218l-177 -1001h-200l16 162q-60 -87 -155.5 -136t-202.5 -49q-179 0 -292 114.5t-113 309.5q0 114 41 225
t112.5 198.5t178 141.5t227.5 54q117 0 201.5 -52t115.5 -141zM528 164q82 0 154.5 38.5t120 98t74.5 131t27 139.5q0 115 -66.5 190t-181.5 75q-108 0 -195 -63t-131.5 -157t-44.5 -194q0 -119 66.5 -188.5t176.5 -69.5zM487 -230q57 0 91.5 -41.5t24.5 -99.5
q-10 -59 -59 -100t-106 -41q-59 0 -93.5 41t-24.5 100q11 58 60 99.5t107 41.5z" />
    <glyph glyph-name="uni1EB8" unicode="&#x1eb8;" horiz-adv-x="1090" 
d="M1107 1220h-557l-72 -409h492l-35 -201h-492l-72 -406h557l-36 -204h-789l251 1422h789zM463 -230q57 0 91.5 -41.5t24.5 -99.5q-10 -59 -59 -100t-106 -41q-59 0 -93.5 41t-24.5 100q11 58 60 99.5t107 41.5z" />
    <glyph glyph-name="uni1EB9" unicode="&#x1eb9;" horiz-adv-x="1128" 
d="M656 1021q190 0 301.5 -99t111.5 -288q0 -62 -11 -123l-11 -49h-770q-4 -32 -4 -72q0 -114 65.5 -173t171.5 -59q88 0 166 45t129 123l194 -48q-76 -141 -206 -219t-284 -78q-206 0 -325 109t-119 304q0 121 40 233t113.5 200t187.5 141t250 53zM654 862
q-124 0 -210.5 -68t-130.5 -181h548q3 24 3 46q0 101 -56.5 152t-153.5 51zM466 -231q57 0 91.5 -41.5t24.5 -99.5q-10 -59 -59 -100t-106 -41q-59 0 -93.5 41t-24.5 100q11 58 60 99.5t107 41.5z" />
    <glyph glyph-name="uni1EBA" unicode="&#x1eba;" horiz-adv-x="1090" 
d="M814 1839q-48 0 -93 -35l-45 83q75 54 163 54q87 0 130.5 -47.5t30.5 -124.5q-20 -118 -157 -157l-13 -80h-108l23 127q119 22 133 103q6 34 -10.5 55.5t-53.5 21.5zM1107 1220h-557l-72 -409h492l-35 -201h-492l-72 -406h557l-36 -204h-789l251 1422h789z" />
    <glyph glyph-name="uni1EBB" unicode="&#x1ebb;" horiz-adv-x="1128" 
d="M730 1401q-47 0 -92 -35l-45 83q74 53 163 53q86 0 130 -47.5t30 -124.5q-20 -117 -155 -156l-15 -80h-107l22 127q119 22 133 103q6 34 -10.5 55.5t-53.5 21.5zM656 1021q190 0 301.5 -99t111.5 -288q0 -62 -11 -123l-11 -49h-770q-4 -32 -4 -72q0 -114 65.5 -173
t171.5 -59q88 0 166 45t129 123l194 -48q-76 -141 -206 -219t-284 -78q-206 0 -325 109t-119 304q0 121 40 233t113.5 200t187.5 141t250 53zM654 862q-124 0 -210.5 -68t-130.5 -181h548q3 24 3 46q0 101 -56.5 152t-153.5 51z" />
    <glyph glyph-name="uni1EBC" unicode="&#x1ebc;" horiz-adv-x="1090" 
d="M680 1723q-45 0 -78.5 -42.5t-45.5 -110.5h-123q22 121 94 197.5t170 76.5q118 0 171 -113q26 -55 78 -55q45 0 77 41t45 111h124q-22 -120 -92.5 -196.5t-171.5 -76.5q-121 0 -172 113q-25 55 -76 55zM103 0l251 1422h789l-36 -202h-557l-72 -409h492l-35 -201h-492
l-72 -406h557l-36 -204h-789z" />
    <glyph glyph-name="uni1EBD" unicode="&#x1ebd;" horiz-adv-x="1128" 
d="M619 1296q-38 0 -65 -36t-37 -95h-117q19 109 83 177.5t152 68.5q107 0 150 -100q20 -44 64 -44q37 0 62.5 34.5t36.5 95.5h118q-19 -107 -82.5 -176t-151.5 -69q-107 0 -153 99q-20 45 -60 45zM656 1021q190 0 301.5 -99t111.5 -288q0 -62 -11 -123l-11 -49h-770
q-4 -32 -4 -72q0 -114 65.5 -173t171.5 -59q88 0 166 45t129 123l194 -48q-76 -141 -206 -219t-284 -78q-206 0 -325 109t-119 304q0 121 40 233t113.5 200t187.5 141t250 53zM654 862q-124 0 -210.5 -68t-130.5 -181h548q3 24 3 46q0 101 -56.5 152t-153.5 51z" />
    <glyph glyph-name="uni1EBE" unicode="&#x1ebe;" horiz-adv-x="1090" 
d="M1197 2264l-271 -263h-149l319 347zM814 1773l-183 -210h-147l271 297h150l167 -297h-148zM103 0l251 1422h789l-36 -202h-557l-72 -409h492l-35 -201h-492l-72 -406h557l-36 -204h-789z" />
    <glyph glyph-name="uni1EBF" unicode="&#x1ebf;" horiz-adv-x="1128" 
d="M1128 1901l-273 -264h-148l318 348zM743 1395l-183 -210h-148l272 297h150l167 -297h-149zM656 1021q190 0 301.5 -99t111.5 -288q0 -62 -11 -123l-11 -49h-770q-4 -32 -4 -72q0 -114 65.5 -173t171.5 -59q88 0 166 45t129 123l194 -48q-76 -141 -206 -219t-284 -78
q-206 0 -325 109t-119 304q0 121 40 233t113.5 200t187.5 141t250 53zM654 862q-124 0 -210.5 -68t-130.5 -181h548q3 24 3 46q0 101 -56.5 152t-153.5 51z" />
    <glyph glyph-name="uni1EC0" unicode="&#x1ec0;" horiz-adv-x="1090" 
d="M930 2001h-148l-179 263l132 84zM814 1773l-183 -210h-147l271 297h150l167 -297h-148zM1107 1220h-557l-72 -409h492l-35 -201h-492l-72 -406h557l-36 -204h-789l251 1422h789z" />
    <glyph glyph-name="uni1EC1" unicode="&#x1ec1;" horiz-adv-x="1128" 
d="M859 1637h-148l-179 264l131 84zM743 1395l-183 -210h-148l272 297h150l167 -297h-149zM656 1021q190 0 301.5 -99t111.5 -288q0 -62 -11 -123l-11 -49h-770q-4 -32 -4 -72q0 -114 65.5 -173t171.5 -59q88 0 166 45t129 123l194 -48q-76 -141 -206 -219t-284 -78
q-206 0 -325 109t-119 304q0 121 40 233t113.5 200t187.5 141t250 53zM654 862q-124 0 -210.5 -68t-130.5 -181h548q3 24 3 46q0 101 -56.5 152t-153.5 51z" />
    <glyph glyph-name="uni1EC2" unicode="&#x1ec2;" horiz-adv-x="1090" 
d="M891 2277q-48 0 -93 -35l-45 83q75 54 163 54q87 0 130.5 -47.5t30.5 -124.5q-20 -118 -157 -157l-13 -80h-108l23 127q119 22 133 103q6 34 -10.5 55.5t-53.5 21.5zM814 1773l-183 -210h-147l271 297h150l167 -297h-148zM1107 1220h-557l-72 -409h492l-35 -201h-492
l-72 -406h557l-36 -204h-789l251 1422h789z" />
    <glyph glyph-name="uni1EC3" unicode="&#x1ec3;" horiz-adv-x="1128" 
d="M813 1878q-47 0 -92 -35l-45 83q74 53 163 53q86 0 130 -47.5t30 -124.5q-20 -117 -155 -156l-15 -80h-107l22 127q119 22 133 103q6 34 -10.5 55.5t-53.5 21.5zM743 1395l-183 -210h-148l272 297h150l167 -297h-149zM656 1021q190 0 301.5 -99t111.5 -288
q0 -62 -11 -123l-11 -49h-770q-4 -32 -4 -72q0 -114 65.5 -173t171.5 -59q88 0 166 45t129 123l194 -48q-76 -141 -206 -219t-284 -78q-206 0 -325 109t-119 304q0 121 40 233t113.5 200t187.5 141t250 53zM654 862q-124 0 -210.5 -68t-130.5 -181h548q3 24 3 46
q0 101 -56.5 152t-153.5 51z" />
    <glyph glyph-name="uni1EC4" unicode="&#x1ec4;" horiz-adv-x="1090" 
d="M1145 2266h124q-22 -120 -92.5 -196.5t-171.5 -76.5q-121 0 -172 113q-25 55 -76 55q-45 0 -78.5 -42.5t-45.5 -110.5h-123q22 121 94 197.5t170 76.5q118 0 171 -113q26 -55 78 -55q45 0 77 41t45 111zM924 1563l-110 210l-183 -210h-147l271 297h150l167 -297h-148z
M103 0l251 1422h789l-36 -202h-557l-72 -409h492l-35 -201h-492l-72 -406h557l-36 -204h-789z" />
    <glyph glyph-name="uni1EC5" unicode="&#x1ec5;" horiz-adv-x="1128" 
d="M702 1773q-38 0 -65 -36t-37 -95h-117q19 109 83 177.5t152 68.5q107 0 150 -100q20 -44 64 -44q37 0 62.5 34.5t36.5 95.5h118q-19 -107 -82.5 -176t-151.5 -69q-107 0 -153 99q-20 45 -60 45zM743 1395l-183 -210h-148l272 297h150l167 -297h-149zM656 1021
q190 0 301.5 -99t111.5 -288q0 -62 -11 -123l-11 -49h-770q-4 -32 -4 -72q0 -114 65.5 -173t171.5 -59q88 0 166 45t129 123l194 -48q-76 -141 -206 -219t-284 -78q-206 0 -325 109t-119 304q0 121 40 233t113.5 200t187.5 141t250 53zM654 862q-124 0 -210.5 -68
t-130.5 -181h548q3 24 3 46q0 101 -56.5 152t-153.5 51z" />
    <glyph glyph-name="uni1EC6" unicode="&#x1ec6;" horiz-adv-x="1090" 
d="M814 1773l-183 -210h-147l271 297h150l167 -297h-148zM1107 1220h-557l-72 -409h492l-35 -201h-492l-72 -406h557l-36 -204h-789l251 1422h789zM463 -230q57 0 91.5 -41.5t24.5 -99.5q-10 -59 -59 -100t-106 -41q-59 0 -93.5 41t-24.5 100q11 58 60 99.5t107 41.5z" />
    <glyph glyph-name="uni1EC7" unicode="&#x1ec7;" horiz-adv-x="1128" 
d="M743 1395l-183 -210h-148l272 297h150l167 -297h-149zM656 1021q190 0 301.5 -99t111.5 -288q0 -62 -11 -123l-11 -49h-770q-4 -32 -4 -72q0 -114 65.5 -173t171.5 -59q88 0 166 45t129 123l194 -48q-76 -141 -206 -219t-284 -78q-206 0 -325 109t-119 304q0 121 40 233
t113.5 200t187.5 141t250 53zM654 862q-124 0 -210.5 -68t-130.5 -181h548q3 24 3 46q0 101 -56.5 152t-153.5 51zM466 -231q57 0 91.5 -41.5t24.5 -99.5q-10 -59 -59 -100t-106 -41q-59 0 -93.5 41t-24.5 100q11 58 60 99.5t107 41.5z" />
    <glyph glyph-name="uni1EC8" unicode="&#x1ec8;" horiz-adv-x="612" 
d="M435 1532l23 127q119 22 133 103q6 34 -10.5 55.5t-53.5 21.5q-48 0 -93 -35l-45 83q75 54 163 54q87 0 130.5 -47.5t30.5 -124.5q-20 -118 -157 -157l-13 -80h-108zM103 0l251 1422h228l-251 -1422h-228z" />
    <glyph glyph-name="uni1EC9" unicode="&#x1ec9;" horiz-adv-x="539" 
d="M323 1095l22 127q119 22 133 103q6 34 -10.5 55.5t-53.5 21.5q-47 0 -92 -35l-45 83q74 53 163 53q86 0 130 -47.5t30 -124.5q-20 -117 -155 -156l-15 -80h-107zM65 0l178 1006h231l-178 -1006h-231z" />
    <glyph glyph-name="uni1ECA" unicode="&#x1eca;" horiz-adv-x="612" 
d="M103 0l251 1422h228l-251 -1422h-228zM127 -512q-59 0 -93.5 41t-24.5 100q11 58 60 99.5t107 41.5q57 0 91.5 -41.5t24.5 -99.5q-10 -59 -59 -100t-106 -41z" />
    <glyph glyph-name="uni1ECB" unicode="&#x1ecb;" horiz-adv-x="539" 
d="M407 1222q-58 0 -95 41t-32 100q6 58 52.5 99t105.5 41q57 0 94.5 -41t30.5 -99q-6 -58 -52.5 -99.5t-103.5 -41.5zM65 0l178 1006h231l-178 -1006h-231zM92 -512q-59 0 -93.5 41t-24.5 100q11 58 60 99.5t107 41.5q57 0 91.5 -41.5t24.5 -99.5q-10 -59 -59 -100
t-106 -41z" />
    <glyph glyph-name="uni1ECC" unicode="&#x1ecc;" horiz-adv-x="1621" 
d="M734 -19q-277 0 -445 158t-168 429q0 134 37 262.5t110.5 238.5t173.5 193.5t234.5 131.5t286.5 48q275 0 443.5 -158t168.5 -428q0 -168 -60 -325.5t-166.5 -279.5t-267 -196t-347.5 -74zM743 193q135 0 251 56t192.5 147.5t120 208t43.5 238.5q0 182 -109 284.5
t-288 102.5q-134 0 -250 -56t-193.5 -147.5t-121 -207.5t-43.5 -238q0 -183 109.5 -285.5t288.5 -102.5zM634 -512q-59 0 -93.5 41t-24.5 100q11 58 60 99.5t107 41.5q57 0 91.5 -41.5t24.5 -99.5q-10 -59 -59 -100t-106 -41z" />
    <glyph glyph-name="uni1ECD" unicode="&#x1ecd;" horiz-adv-x="1189" 
d="M516 -19q-204 0 -328.5 113t-124.5 308q0 120 42.5 231t118.5 197.5t192.5 138t254.5 51.5q206 0 329.5 -113t123.5 -308q0 -120 -42.5 -231t-119 -197t-193 -138t-253.5 -52zM521 159q87 0 161.5 38.5t122.5 101t75 138t27 152.5q0 116 -66.5 185.5t-178.5 69.5
q-86 0 -160 -39.5t-121 -102t-73 -138.5t-26 -151q0 -118 64.5 -186t174.5 -68zM416 -512q-59 0 -93.5 41t-24.5 100q11 58 60 99.5t107 41.5q57 0 91.5 -41.5t24.5 -99.5q-10 -59 -59 -100t-106 -41z" />
    <glyph glyph-name="uni1ECE" unicode="&#x1ece;" horiz-adv-x="1621" 
d="M942 1532l23 127q119 22 133 103q6 34 -10.5 55.5t-53.5 21.5q-48 0 -93 -35l-45 83q75 54 163 54q87 0 130.5 -47.5t30.5 -124.5q-20 -118 -157 -157l-13 -80h-108zM734 -19q-277 0 -445 158t-168 429q0 134 37 262.5t110.5 238.5t173.5 193.5t234.5 131.5t286.5 48
q275 0 443.5 -158t168.5 -428q0 -168 -60 -325.5t-166.5 -279.5t-267 -196t-347.5 -74zM743 193q135 0 251 56t192.5 147.5t120 208t43.5 238.5q0 182 -109 284.5t-288 102.5q-134 0 -250 -56t-193.5 -147.5t-121 -207.5t-43.5 -238q0 -183 109.5 -285.5t288.5 -102.5z" />
    <glyph glyph-name="uni1ECF" unicode="&#x1ecf;" horiz-adv-x="1189" 
d="M645 1089l22 127q119 22 133 103q6 34 -10.5 55.5t-53.5 21.5q-47 0 -92 -35l-45 83q74 53 163 53q86 0 130 -47.5t30 -124.5q-20 -117 -155 -156l-15 -80h-107zM516 -19q-204 0 -328.5 113t-124.5 308q0 120 42.5 231t118.5 197.5t192.5 138t254.5 51.5
q206 0 329.5 -113t123.5 -308q0 -120 -42.5 -231t-119 -197t-193 -138t-253.5 -52zM521 159q87 0 161.5 38.5t122.5 101t75 138t27 152.5q0 116 -66.5 185.5t-178.5 69.5q-86 0 -160 -39.5t-121 -102t-73 -138.5t-26 -151q0 -118 64.5 -186t174.5 -68z" />
    <glyph glyph-name="uni1ED0" unicode="&#x1ed0;" horiz-adv-x="1621" 
d="M997 2001l319 347l101 -84l-271 -263h-149zM851 1563h-147l271 297h150l167 -297h-148l-110 210zM734 -19q-277 0 -445 158t-168 429q0 134 37 262.5t110.5 238.5t173.5 193.5t234.5 131.5t286.5 48q275 0 443.5 -158t168.5 -428q0 -168 -60 -325.5t-166.5 -279.5
t-267 -196t-347.5 -74zM743 193q135 0 251 56t192.5 147.5t120 208t43.5 238.5q0 182 -109 284.5t-288 102.5q-134 0 -250 -56t-193.5 -147.5t-121 -207.5t-43.5 -238q0 -183 109.5 -285.5t288.5 -102.5z" />
    <glyph glyph-name="uni1ED1" unicode="&#x1ed1;" horiz-adv-x="1189" 
d="M713 1632l318 348l103 -84l-273 -264h-148zM566 1180h-148l272 297h150l167 -297h-149l-109 210zM516 -19q-204 0 -328.5 113t-124.5 308q0 120 42.5 231t118.5 197.5t192.5 138t254.5 51.5q206 0 329.5 -113t123.5 -308q0 -120 -42.5 -231t-119 -197t-193 -138
t-253.5 -52zM521 159q87 0 161.5 38.5t122.5 101t75 138t27 152.5q0 116 -66.5 185.5t-178.5 69.5q-86 0 -160 -39.5t-121 -102t-73 -138.5t-26 -151q0 -118 64.5 -186t174.5 -68z" />
    <glyph glyph-name="uni1ED2" unicode="&#x1ed2;" horiz-adv-x="1621" 
d="M1002 2001l-179 263l132 84l195 -347h-148zM851 1563h-147l271 297h150l167 -297h-148l-110 210zM734 -19q-277 0 -445 158t-168 429q0 134 37 262.5t110.5 238.5t173.5 193.5t234.5 131.5t286.5 48q275 0 443.5 -158t168.5 -428q0 -168 -60 -325.5t-166.5 -279.5
t-267 -196t-347.5 -74zM743 193q135 0 251 56t192.5 147.5t120 208t43.5 238.5q0 182 -109 284.5t-288 102.5q-134 0 -250 -56t-193.5 -147.5t-121 -207.5t-43.5 -238q0 -183 109.5 -285.5t288.5 -102.5z" />
    <glyph glyph-name="uni1ED3" unicode="&#x1ed3;" horiz-adv-x="1189" 
d="M717 1632l-179 264l131 84l196 -348h-148zM566 1180h-148l272 297h150l167 -297h-149l-109 210zM516 -19q-204 0 -328.5 113t-124.5 308q0 120 42.5 231t118.5 197.5t192.5 138t254.5 51.5q206 0 329.5 -113t123.5 -308q0 -120 -42.5 -231t-119 -197t-193 -138
t-253.5 -52zM521 159q87 0 161.5 38.5t122.5 101t75 138t27 152.5q0 116 -66.5 185.5t-178.5 69.5q-86 0 -160 -39.5t-121 -102t-73 -138.5t-26 -151q0 -118 64.5 -186t174.5 -68z" />
    <glyph glyph-name="uni1ED4" unicode="&#x1ed4;" horiz-adv-x="1621" 
d="M1019 1970l23 127q119 22 133 103q6 34 -10.5 55.5t-53.5 21.5q-48 0 -93 -35l-45 83q75 54 163 54q87 0 130.5 -47.5t30.5 -124.5q-20 -118 -157 -157l-13 -80h-108zM851 1563h-147l271 297h150l167 -297h-148l-110 210zM734 -19q-277 0 -445 158t-168 429
q0 134 37 262.5t110.5 238.5t173.5 193.5t234.5 131.5t286.5 48q275 0 443.5 -158t168.5 -428q0 -168 -60 -325.5t-166.5 -279.5t-267 -196t-347.5 -74zM743 193q135 0 251 56t192.5 147.5t120 208t43.5 238.5q0 182 -109 284.5t-288 102.5q-134 0 -250 -56t-193.5 -147.5
t-121 -207.5t-43.5 -238q0 -183 109.5 -285.5t288.5 -102.5z" />
    <glyph glyph-name="uni1ED5" unicode="&#x1ed5;" horiz-adv-x="1189" 
d="M728 1566l22 127q119 22 133 103q6 34 -10.5 55.5t-53.5 21.5q-47 0 -92 -35l-45 83q74 53 163 53q86 0 130 -47.5t30 -124.5q-20 -117 -155 -156l-15 -80h-107zM566 1180h-148l272 297h150l167 -297h-149l-109 210zM516 -19q-204 0 -328.5 113t-124.5 308
q0 120 42.5 231t118.5 197.5t192.5 138t254.5 51.5q206 0 329.5 -113t123.5 -308q0 -120 -42.5 -231t-119 -197t-193 -138t-253.5 -52zM521 159q87 0 161.5 38.5t122.5 101t75 138t27 152.5q0 116 -66.5 185.5t-178.5 69.5q-86 0 -160 -39.5t-121 -102t-73 -138.5t-26 -151
q0 -118 64.5 -186t174.5 -68z" />
    <glyph glyph-name="uni1ED6" unicode="&#x1ed6;" horiz-adv-x="1621" 
d="M1225 1993q-121 0 -172 113q-25 55 -76 55q-45 0 -78.5 -42.5t-45.5 -110.5h-123q22 121 94 197.5t170 76.5q118 0 171 -113q26 -55 78 -55q45 0 77 41t45 111h124q-22 -120 -92.5 -196.5t-171.5 -76.5zM851 1563h-147l271 297h150l167 -297h-148l-110 210zM734 -19
q-277 0 -445 158t-168 429q0 134 37 262.5t110.5 238.5t173.5 193.5t234.5 131.5t286.5 48q275 0 443.5 -158t168.5 -428q0 -168 -60 -325.5t-166.5 -279.5t-267 -196t-347.5 -74zM743 193q135 0 251 56t192.5 147.5t120 208t43.5 238.5q0 182 -109 284.5t-288 102.5
q-134 0 -250 -56t-193.5 -147.5t-121 -207.5t-43.5 -238q0 -183 109.5 -285.5t288.5 -102.5z" />
    <glyph glyph-name="uni1ED7" unicode="&#x1ed7;" horiz-adv-x="1189" 
d="M921 1624q-107 0 -153 99q-20 45 -60 45q-38 0 -65 -36t-37 -95h-117q19 109 83 177.5t152 68.5q107 0 150 -100q20 -44 64 -44q37 0 62.5 34.5t36.5 95.5h118q-19 -107 -82.5 -176t-151.5 -69zM566 1180h-148l272 297h150l167 -297h-149l-109 210zM516 -19
q-204 0 -328.5 113t-124.5 308q0 120 42.5 231t118.5 197.5t192.5 138t254.5 51.5q206 0 329.5 -113t123.5 -308q0 -120 -42.5 -231t-119 -197t-193 -138t-253.5 -52zM521 159q87 0 161.5 38.5t122.5 101t75 138t27 152.5q0 116 -66.5 185.5t-178.5 69.5q-86 0 -160 -39.5
t-121 -102t-73 -138.5t-26 -151q0 -118 64.5 -186t174.5 -68z" />
    <glyph glyph-name="uni1ED8" unicode="&#x1ed8;" horiz-adv-x="1621" 
d="M851 1563h-147l271 297h150l167 -297h-148l-110 210zM734 -19q-277 0 -445 158t-168 429q0 134 37 262.5t110.5 238.5t173.5 193.5t234.5 131.5t286.5 48q275 0 443.5 -158t168.5 -428q0 -168 -60 -325.5t-166.5 -279.5t-267 -196t-347.5 -74zM743 193q135 0 251 56
t192.5 147.5t120 208t43.5 238.5q0 182 -109 284.5t-288 102.5q-134 0 -250 -56t-193.5 -147.5t-121 -207.5t-43.5 -238q0 -183 109.5 -285.5t288.5 -102.5zM634 -512q-59 0 -93.5 41t-24.5 100q11 58 60 99.5t107 41.5q57 0 91.5 -41.5t24.5 -99.5q-10 -59 -59 -100
t-106 -41z" />
    <glyph glyph-name="uni1ED9" unicode="&#x1ed9;" horiz-adv-x="1189" 
d="M566 1180h-148l272 297h150l167 -297h-149l-109 210zM516 -19q-204 0 -328.5 113t-124.5 308q0 120 42.5 231t118.5 197.5t192.5 138t254.5 51.5q206 0 329.5 -113t123.5 -308q0 -120 -42.5 -231t-119 -197t-193 -138t-253.5 -52zM521 159q87 0 161.5 38.5t122.5 101
t75 138t27 152.5q0 116 -66.5 185.5t-178.5 69.5q-86 0 -160 -39.5t-121 -102t-73 -138.5t-26 -151q0 -118 64.5 -186t174.5 -68zM416 -512q-59 0 -93.5 41t-24.5 100q11 58 60 99.5t107 41.5q57 0 91.5 -41.5t24.5 -99.5q-10 -59 -59 -100t-106 -41z" />
    <glyph glyph-name="uni1EDA" unicode="&#x1eda;" horiz-adv-x="1621" 
d="M1340 1826l-271 -263h-149l319 347zM1654 1509h125l-24 -137q-41 -233 -218 -233q-16 0 -24 1q62 -126 62 -284q0 -168 -60 -325.5t-166.5 -279.5t-267 -196t-347.5 -74q-277 0 -445 158t-168 429q0 134 37 262.5t110.5 238.5t173.5 193.5t234.5 131.5t286.5 48
q286 0 454 -168l2 2q48 -28 95 -28q53 0 80 34t40 112zM743 193q135 0 251 56t192.5 147.5t120 208t43.5 238.5q0 182 -109 284.5t-288 102.5q-134 0 -250 -56t-193.5 -147.5t-121 -207.5t-43.5 -238q0 -183 109.5 -285.5t288.5 -102.5z" />
    <glyph glyph-name="uni1EDB" unicode="&#x1edb;" horiz-adv-x="1189" 
d="M1051 1419l-273 -264h-148l318 348zM1211 1154h125l-24 -137q-41 -233 -218 -233h-6q36 -85 36 -185q0 -120 -42.5 -231t-119 -197t-193 -138t-253.5 -52q-204 0 -328.5 113t-124.5 308q0 120 42.5 231t118.5 197.5t192.5 138t254.5 51.5q204 0 326 -110q38 -17 74 -17
q53 0 80 34t40 112zM521 159q87 0 161.5 38.5t122.5 101t75 138t27 152.5q0 116 -66.5 185.5t-178.5 69.5q-86 0 -160 -39.5t-121 -102t-73 -138.5t-26 -151q0 -118 64.5 -186t174.5 -68z" />
    <glyph glyph-name="uni1EDC" unicode="&#x1edc;" horiz-adv-x="1621" 
d="M1073 1563h-148l-179 263l132 84zM1654 1509h125l-24 -137q-41 -233 -218 -233q-16 0 -24 1q62 -126 62 -284q0 -168 -60 -325.5t-166.5 -279.5t-267 -196t-347.5 -74q-277 0 -445 158t-168 429q0 134 37 262.5t110.5 238.5t173.5 193.5t234.5 131.5t286.5 48
q286 0 454 -168l2 2q48 -28 95 -28q53 0 80 34t40 112zM743 193q135 0 251 56t192.5 147.5t120 208t43.5 238.5q0 182 -109 284.5t-288 102.5q-134 0 -250 -56t-193.5 -147.5t-121 -207.5t-43.5 -238q0 -183 109.5 -285.5t288.5 -102.5z" />
    <glyph glyph-name="uni1EDD" unicode="&#x1edd;" horiz-adv-x="1189" 
d="M782 1155h-148l-179 264l131 84zM1211 1154h125l-24 -137q-41 -233 -218 -233h-6q36 -85 36 -185q0 -120 -42.5 -231t-119 -197t-193 -138t-253.5 -52q-204 0 -328.5 113t-124.5 308q0 120 42.5 231t118.5 197.5t192.5 138t254.5 51.5q204 0 326 -110q38 -17 74 -17
q53 0 80 34t40 112zM521 159q87 0 161.5 38.5t122.5 101t75 138t27 152.5q0 116 -66.5 185.5t-178.5 69.5q-86 0 -160 -39.5t-121 -102t-73 -138.5t-26 -151q0 -118 64.5 -186t174.5 -68z" />
    <glyph glyph-name="uni1EDE" unicode="&#x1ede;" horiz-adv-x="1621" 
d="M1034 1839q-48 0 -93 -35l-45 83q75 54 163 54q87 0 130.5 -47.5t30.5 -124.5q-20 -118 -157 -157l-13 -80h-108l23 127q119 22 133 103q6 34 -10.5 55.5t-53.5 21.5zM1654 1509h125l-24 -137q-41 -233 -218 -233q-16 0 -24 1q62 -126 62 -284q0 -168 -60 -325.5
t-166.5 -279.5t-267 -196t-347.5 -74q-277 0 -445 158t-168 429q0 134 37 262.5t110.5 238.5t173.5 193.5t234.5 131.5t286.5 48q286 0 454 -168l2 2q48 -28 95 -28q53 0 80 34t40 112zM743 193q135 0 251 56t192.5 147.5t120 208t43.5 238.5q0 182 -109 284.5t-288 102.5
q-134 0 -250 -56t-193.5 -147.5t-121 -207.5t-43.5 -238q0 -183 109.5 -285.5t288.5 -102.5z" />
    <glyph glyph-name="uni1EDF" unicode="&#x1edf;" horiz-adv-x="1189" 
d="M736 1396q-47 0 -92 -35l-45 83q74 53 163 53q86 0 130 -47.5t30 -124.5q-20 -117 -155 -156l-15 -80h-107l22 127q119 22 133 103q6 34 -10.5 55.5t-53.5 21.5zM1211 1154h125l-24 -137q-41 -233 -218 -233h-6q36 -85 36 -185q0 -120 -42.5 -231t-119 -197t-193 -138
t-253.5 -52q-204 0 -328.5 113t-124.5 308q0 120 42.5 231t118.5 197.5t192.5 138t254.5 51.5q204 0 326 -110q38 -17 74 -17q53 0 80 34t40 112zM521 159q87 0 161.5 38.5t122.5 101t75 138t27 152.5q0 116 -66.5 185.5t-178.5 69.5q-86 0 -160 -39.5t-121 -102t-73 -138.5
t-26 -151q0 -118 64.5 -186t174.5 -68z" />
    <glyph glyph-name="uni1EE0" unicode="&#x1ee0;" horiz-adv-x="1621" 
d="M900 1723q-45 0 -78.5 -42.5t-45.5 -110.5h-123q22 121 94 197.5t170 76.5q118 0 171 -113q26 -55 78 -55q45 0 77 41t45 111h124q-22 -120 -92.5 -196.5t-171.5 -76.5q-121 0 -172 113q-25 55 -76 55zM1654 1509h125l-24 -137q-41 -233 -218 -233q-16 0 -24 1
q62 -126 62 -284q0 -168 -60 -325.5t-166.5 -279.5t-267 -196t-347.5 -74q-277 0 -445 158t-168 429q0 134 37 262.5t110.5 238.5t173.5 193.5t234.5 131.5t286.5 48q286 0 454 -168l2 2q48 -28 95 -28q53 0 80 34t40 112zM743 193q135 0 251 56t192.5 147.5t120 208
t43.5 238.5q0 182 -109 284.5t-288 102.5q-134 0 -250 -56t-193.5 -147.5t-121 -207.5t-43.5 -238q0 -183 109.5 -285.5t288.5 -102.5z" />
    <glyph glyph-name="uni1EE1" unicode="&#x1ee1;" horiz-adv-x="1189" 
d="M625 1291q-38 0 -65 -36t-37 -95h-117q19 109 83 177.5t152 68.5q107 0 150 -100q20 -44 64 -44q37 0 62.5 34.5t36.5 95.5h118q-19 -107 -82.5 -176t-151.5 -69q-107 0 -153 99q-20 45 -60 45zM1211 1154h125l-24 -137q-41 -233 -218 -233h-6q36 -85 36 -185
q0 -120 -42.5 -231t-119 -197t-193 -138t-253.5 -52q-204 0 -328.5 113t-124.5 308q0 120 42.5 231t118.5 197.5t192.5 138t254.5 51.5q204 0 326 -110q38 -17 74 -17q53 0 80 34t40 112zM521 159q87 0 161.5 38.5t122.5 101t75 138t27 152.5q0 116 -66.5 185.5t-178.5 69.5
q-86 0 -160 -39.5t-121 -102t-73 -138.5t-26 -151q0 -118 64.5 -186t174.5 -68z" />
    <glyph glyph-name="uni1EE2" unicode="&#x1ee2;" horiz-adv-x="1621" 
d="M1654 1509h125l-24 -137q-41 -233 -218 -233q-16 0 -24 1q62 -126 62 -284q0 -168 -60 -325.5t-166.5 -279.5t-267 -196t-347.5 -74q-277 0 -445 158t-168 429q0 134 37 262.5t110.5 238.5t173.5 193.5t234.5 131.5t286.5 48q286 0 454 -168l2 2q48 -28 95 -28
q53 0 80 34t40 112zM743 193q135 0 251 56t192.5 147.5t120 208t43.5 238.5q0 182 -109 284.5t-288 102.5q-134 0 -250 -56t-193.5 -147.5t-121 -207.5t-43.5 -238q0 -183 109.5 -285.5t288.5 -102.5zM683 -230q57 0 91.5 -41.5t24.5 -99.5q-10 -59 -59 -100t-106 -41
q-59 0 -93.5 41t-24.5 100q11 58 60 99.5t107 41.5z" />
    <glyph glyph-name="uni1EE3" unicode="&#x1ee3;" horiz-adv-x="1189" 
d="M1211 1154h125l-24 -137q-41 -233 -218 -233h-6q36 -85 36 -185q0 -120 -42.5 -231t-119 -197t-193 -138t-253.5 -52q-204 0 -328.5 113t-124.5 308q0 120 42.5 231t118.5 197.5t192.5 138t254.5 51.5q204 0 326 -110q38 -17 74 -17q53 0 80 34t40 112zM521 159
q87 0 161.5 38.5t122.5 101t75 138t27 152.5q0 116 -66.5 185.5t-178.5 69.5q-86 0 -160 -39.5t-121 -102t-73 -138.5t-26 -151q0 -118 64.5 -186t174.5 -68zM465 -230q57 0 91.5 -41.5t24.5 -99.5q-10 -59 -59 -100t-106 -41q-59 0 -93.5 41t-24.5 100q11 58 60 99.5
t107 41.5z" />
    <glyph glyph-name="uni1EE4" unicode="&#x1ee4;" horiz-adv-x="1397" 
d="M618 -19q-211 0 -339.5 105.5t-128.5 297.5q0 55 10 106l165 932h227l-161 -916q-9 -50 -9 -90q0 -117 65.5 -174.5t177.5 -57.5q142 0 247 86.5t135 250.5l159 901h228l-167 -948q-22 -121 -79 -216.5t-138.5 -155t-181 -90.5t-210.5 -31zM517 -512q-59 0 -93.5 41
t-24.5 100q11 58 60 99.5t107 41.5q57 0 91.5 -41.5t24.5 -99.5q-10 -59 -59 -100t-106 -41z" />
    <glyph glyph-name="uni1EE5" unicode="&#x1ee5;" horiz-adv-x="1140" 
d="M856 1001h218l-177 -1001h-207l19 142q-62 -76 -145.5 -118.5t-180.5 -42.5q-134 0 -211 71t-77 199q0 36 8 84l119 666h218l-110 -624q-6 -36 -6 -63q0 -76 41 -112t109 -36q104 0 180 65t97 180h1zM443 -230q57 0 91.5 -41.5t24.5 -99.5q-10 -59 -59 -100t-106 -41
q-59 0 -93.5 41t-24.5 100q11 58 60 99.5t107 41.5z" />
    <glyph glyph-name="uni1EE6" unicode="&#x1ee6;" horiz-adv-x="1397" 
d="M826 1532l23 127q119 22 133 103q6 34 -10.5 55.5t-53.5 21.5q-48 0 -93 -35l-45 83q75 54 163 54q87 0 130.5 -47.5t30.5 -124.5q-20 -118 -157 -157l-13 -80h-108zM618 -19q-211 0 -339.5 105.5t-128.5 297.5q0 55 10 106l165 932h227l-161 -916q-9 -50 -9 -90
q0 -117 65.5 -174.5t177.5 -57.5q142 0 247 86.5t135 250.5l159 901h228l-167 -948q-22 -121 -79 -216.5t-138.5 -155t-181 -90.5t-210.5 -31z" />
    <glyph glyph-name="uni1EE7" unicode="&#x1ee7;" horiz-adv-x="1140" 
d="M717 1397q-47 0 -92 -35l-45 83q74 53 163 53q86 0 130 -47.5t30 -124.5q-20 -117 -155 -156l-15 -80h-107l22 127q119 22 133 103q6 34 -10.5 55.5t-53.5 21.5zM856 1001h218l-177 -1001h-207l19 142q-62 -76 -145.5 -118.5t-180.5 -42.5q-134 0 -211 71t-77 199
q0 36 8 84l119 666h218l-110 -624q-6 -36 -6 -63q0 -76 41 -112t109 -36q104 0 180 65t97 180h1z" />
    <glyph glyph-name="uni1EE8" unicode="&#x1ee8;" horiz-adv-x="1397" 
d="M1224 1826l-271 -263h-149l319 347zM1575 1568h125l-24 -137q-41 -233 -218 -233q-46 0 -100 19l-131 -743q-22 -121 -79 -216.5t-138.5 -155t-181 -90.5t-210.5 -31q-211 0 -339.5 105.5t-128.5 297.5q0 55 10 106l165 932h227l-161 -916q-9 -50 -9 -90
q0 -117 65.5 -174.5t177.5 -57.5q142 0 247 86.5t135 250.5l159 901h228l-18 -104q29 -11 59 -11q53 0 80 34t40 112z" />
    <glyph glyph-name="uni1EE9" unicode="&#x1ee9;" horiz-adv-x="1140" 
d="M1032 1420l-273 -264h-148l318 348zM1267 1147h125l-24 -137q-41 -233 -218 -233q-56 0 -111 24l-142 -801h-207l19 142q-62 -76 -145.5 -118.5t-180.5 -42.5q-134 0 -211 71t-77 199q0 36 8 84l119 666h218l-110 -624q-6 -36 -6 -63q0 -76 41 -112t109 -36q104 0 180 65
t97 180h1l104 590h218l-18 -99q38 -16 71 -16q53 0 80 34t40 112z" />
    <glyph glyph-name="uni1EEA" unicode="&#x1eea;" horiz-adv-x="1397" 
d="M957 1563h-148l-179 263l132 84zM1575 1568h125l-24 -137q-41 -233 -218 -233q-46 0 -100 19l-131 -743q-22 -121 -79 -216.5t-138.5 -155t-181 -90.5t-210.5 -31q-211 0 -339.5 105.5t-128.5 297.5q0 55 10 106l165 932h227l-161 -916q-9 -50 -9 -90q0 -117 65.5 -174.5
t177.5 -57.5q142 0 247 86.5t135 250.5l159 901h228l-18 -104q29 -11 59 -11q53 0 80 34t40 112z" />
    <glyph glyph-name="uni1EEB" unicode="&#x1eeb;" horiz-adv-x="1140" 
d="M763 1156h-148l-179 264l131 84zM1267 1147h125l-24 -137q-41 -233 -218 -233q-56 0 -111 24l-142 -801h-207l19 142q-62 -76 -145.5 -118.5t-180.5 -42.5q-134 0 -211 71t-77 199q0 36 8 84l119 666h218l-110 -624q-6 -36 -6 -63q0 -76 41 -112t109 -36q104 0 180 65
t97 180h1l104 590h218l-18 -99q38 -16 71 -16q53 0 80 34t40 112z" />
    <glyph glyph-name="uni1EEC" unicode="&#x1eec;" horiz-adv-x="1397" 
d="M918 1839q-48 0 -93 -35l-45 83q75 54 163 54q87 0 130.5 -47.5t30.5 -124.5q-20 -118 -157 -157l-13 -80h-108l23 127q119 22 133 103q6 34 -10.5 55.5t-53.5 21.5zM1575 1568h125l-24 -137q-41 -233 -218 -233q-46 0 -100 19l-131 -743q-22 -121 -79 -216.5
t-138.5 -155t-181 -90.5t-210.5 -31q-211 0 -339.5 105.5t-128.5 297.5q0 55 10 106l165 932h227l-161 -916q-9 -50 -9 -90q0 -117 65.5 -174.5t177.5 -57.5q142 0 247 86.5t135 250.5l159 901h228l-18 -104q29 -11 59 -11q53 0 80 34t40 112z" />
    <glyph glyph-name="uni1EED" unicode="&#x1eed;" horiz-adv-x="1140" 
d="M717 1397q-47 0 -92 -35l-45 83q74 53 163 53q86 0 130 -47.5t30 -124.5q-20 -117 -155 -156l-15 -80h-107l22 127q119 22 133 103q6 34 -10.5 55.5t-53.5 21.5zM1267 1147h125l-24 -137q-41 -233 -218 -233q-56 0 -111 24l-142 -801h-207l19 142q-62 -76 -145.5 -118.5
t-180.5 -42.5q-134 0 -211 71t-77 199q0 36 8 84l119 666h218l-110 -624q-6 -36 -6 -63q0 -76 41 -112t109 -36q104 0 180 65t97 180h1l104 590h218l-18 -99q38 -16 71 -16q53 0 80 34t40 112z" />
    <glyph glyph-name="uni1EEE" unicode="&#x1eee;" horiz-adv-x="1397" 
d="M784 1723q-45 0 -78.5 -42.5t-45.5 -110.5h-123q22 121 94 197.5t170 76.5q118 0 171 -113q26 -55 78 -55q45 0 77 41t45 111h124q-22 -120 -92.5 -196.5t-171.5 -76.5q-121 0 -172 113q-25 55 -76 55zM1575 1568h125l-24 -137q-41 -233 -218 -233q-46 0 -100 19
l-131 -743q-22 -121 -79 -216.5t-138.5 -155t-181 -90.5t-210.5 -31q-211 0 -339.5 105.5t-128.5 297.5q0 55 10 106l165 932h227l-161 -916q-9 -50 -9 -90q0 -117 65.5 -174.5t177.5 -57.5q142 0 247 86.5t135 250.5l159 901h228l-18 -104q29 -11 59 -11q53 0 80 34t40 112
z" />
    <glyph glyph-name="uni1EEF" unicode="&#x1eef;" horiz-adv-x="1140" 
d="M606 1292q-38 0 -65 -36t-37 -95h-117q19 109 83 177.5t152 68.5q107 0 150 -100q20 -44 64 -44q37 0 62.5 34.5t36.5 95.5h118q-19 -107 -82.5 -176t-151.5 -69q-107 0 -153 99q-20 45 -60 45zM1267 1147h125l-24 -137q-41 -233 -218 -233q-56 0 -111 24l-142 -801h-207
l19 142q-62 -76 -145.5 -118.5t-180.5 -42.5q-134 0 -211 71t-77 199q0 36 8 84l119 666h218l-110 -624q-6 -36 -6 -63q0 -76 41 -112t109 -36q104 0 180 65t97 180h1l104 590h218l-18 -99q38 -16 71 -16q53 0 80 34t40 112z" />
    <glyph glyph-name="uni1EF0" unicode="&#x1ef0;" horiz-adv-x="1397" 
d="M1575 1568h125l-24 -137q-41 -233 -218 -233q-46 0 -100 19l-131 -743q-22 -121 -79 -216.5t-138.5 -155t-181 -90.5t-210.5 -31q-211 0 -339.5 105.5t-128.5 297.5q0 55 10 106l165 932h227l-161 -916q-9 -50 -9 -90q0 -117 65.5 -174.5t177.5 -57.5q142 0 247 86.5
t135 250.5l159 901h228l-18 -104q29 -11 59 -11q53 0 80 34t40 112zM566 -230q57 0 91.5 -41.5t24.5 -99.5q-10 -59 -59 -100t-106 -41q-59 0 -93.5 41t-24.5 100q11 58 60 99.5t107 41.5z" />
    <glyph glyph-name="uni1EF1" unicode="&#x1ef1;" horiz-adv-x="1140" 
d="M1267 1147h125l-24 -137q-41 -233 -218 -233q-56 0 -111 24l-142 -801h-207l19 142q-62 -76 -145.5 -118.5t-180.5 -42.5q-134 0 -211 71t-77 199q0 36 8 84l119 666h218l-110 -624q-6 -36 -6 -63q0 -76 41 -112t109 -36q104 0 180 65t97 180h1l104 590h218l-18 -99
q38 -16 71 -16q53 0 80 34t40 112zM443 -230q57 0 91.5 -41.5t24.5 -99.5q-10 -59 -59 -100t-106 -41q-59 0 -93.5 41t-24.5 100q11 58 60 99.5t107 41.5z" />
    <glyph glyph-name="Ygrave" unicode="&#x1ef2;" horiz-adv-x="1205" 
d="M861 1563h-148l-179 263l132 84zM1348 1422l-604 -748l-118 -674h-230l121 682l-336 740h245l232 -542l424 542h266z" />
    <glyph glyph-name="ygrave" unicode="&#x1ef3;" horiz-adv-x="1023" 
d="M699 1156h-148l-179 264l131 84zM870 1001h232l-855 -1472h-229l304 513l-225 959h236l135 -726z" />
    <glyph glyph-name="uni1EF4" unicode="&#x1ef4;" horiz-adv-x="1205" 
d="M1348 1422l-604 -748l-118 -674h-230l121 682l-336 740h245l232 -542l424 542h266zM472 -230q57 0 91.5 -41.5t24.5 -99.5q-10 -59 -59 -100t-106 -41q-59 0 -93.5 41t-24.5 100q11 58 60 99.5t107 41.5z" />
    <glyph glyph-name="uni1EF5" unicode="&#x1ef5;" horiz-adv-x="1023" 
d="M870 1001h232l-855 -1472h-229l304 513l-225 959h236l135 -726zM726 -230q57 0 91.5 -41.5t24.5 -99.5q-10 -59 -59 -100t-106 -41q-59 0 -93.5 41t-24.5 100q11 58 60 99.5t107 41.5z" />
    <glyph glyph-name="uni1EF6" unicode="&#x1ef6;" horiz-adv-x="1205" 
d="M822 1839q-48 0 -93 -35l-45 83q75 54 163 54q87 0 130.5 -47.5t30.5 -124.5q-20 -118 -157 -157l-13 -80h-108l23 127q119 22 133 103q6 34 -10.5 55.5t-53.5 21.5zM1348 1422l-604 -748l-118 -674h-230l121 682l-336 740h245l232 -542l424 542h266z" />
    <glyph glyph-name="uni1EF7" unicode="&#x1ef7;" horiz-adv-x="1023" 
d="M653 1397q-47 0 -92 -35l-45 83q74 53 163 53q86 0 130 -47.5t30 -124.5q-20 -117 -155 -156l-15 -80h-107l22 127q119 22 133 103q6 34 -10.5 55.5t-53.5 21.5zM870 1001h232l-855 -1472h-229l304 513l-225 959h236l135 -726z" />
    <glyph glyph-name="uni1EF8" unicode="&#x1ef8;" horiz-adv-x="1205" 
d="M688 1723q-45 0 -78.5 -42.5t-45.5 -110.5h-123q22 121 94 197.5t170 76.5q118 0 171 -113q26 -55 78 -55q45 0 77 41t45 111h124q-22 -120 -92.5 -196.5t-171.5 -76.5q-121 0 -172 113q-25 55 -76 55zM1348 1422l-604 -748l-118 -674h-230l121 682l-336 740h245
l232 -542l424 542h266z" />
    <glyph glyph-name="uni1EF9" unicode="&#x1ef9;" horiz-adv-x="1023" 
d="M542 1292q-38 0 -65 -36t-37 -95h-117q19 109 83 177.5t152 68.5q107 0 150 -100q20 -44 64 -44q37 0 62.5 34.5t36.5 95.5h118q-19 -107 -82.5 -176t-151.5 -69q-107 0 -153 99q-20 45 -60 45zM870 1001h232l-855 -1472h-229l304 513l-225 959h236l135 -726z" />
    <glyph glyph-name="endash" unicode="&#x2013;" horiz-adv-x="1323" 
d="M137 436l34 193h1024l-34 -193h-1024z" />
    <glyph glyph-name="emdash" unicode="&#x2014;" horiz-adv-x="2347" 
d="M137 436l34 193h2048l-34 -193h-2048z" />
    <glyph glyph-name="quoteleft" unicode="&#x2018;" horiz-adv-x="580" 
d="M140 790l310 636h168l-235 -636h-243z" />
    <glyph glyph-name="quoteright" unicode="&#x2019;" horiz-adv-x="579" 
d="M173 790l237 636h241l-308 -636h-170z" />
    <glyph glyph-name="quotesinglbase" unicode="&#x201a;" horiz-adv-x="577" 
d="M-32 -365l237 637h241l-308 -637h-170z" />
    <glyph glyph-name="quotedblleft" unicode="&#x201c;" horiz-adv-x="999" 
d="M140 790l310 636h168l-235 -636h-243zM560 790l309 636h169l-235 -636h-243z" />
    <glyph glyph-name="quotedblright" unicode="&#x201d;" horiz-adv-x="998" 
d="M173 790l237 636h241l-308 -636h-170zM593 790l236 636h242l-308 -636h-170z" />
    <glyph glyph-name="quotedblbase" unicode="&#x201e;" horiz-adv-x="1000" 
d="M-32 -365l237 637h241l-308 -637h-170zM392 -365l237 637h241l-308 -637h-170z" />
    <glyph glyph-name="dagger" unicode="&#x2020;" horiz-adv-x="981" 
d="M1007 1044l-26 -149h-351l-209 -1189h-152l209 1189h-339l26 149h340l67 382h152l-67 -382h350z" />
    <glyph glyph-name="daggerdbl" unicode="&#x2021;" horiz-adv-x="1055" 
d="M1018 895h-351l-113 -645h349l-26 -150h-350l-69 -394h-152l69 394h-340l26 150h341l113 645h-339l26 149h340l67 382h152l-67 -382h349z" />
    <glyph glyph-name="bullet" unicode="&#x2022;" horiz-adv-x="877" 
d="M433 382q-124 0 -198.5 88t-52.5 215q20 110 115.5 190.5t206.5 80.5q121 0 195.5 -91t52.5 -213q-20 -114 -114 -192t-205 -78z" />
    <glyph glyph-name="ellipsis" unicode="&#x2026;" horiz-adv-x="1922" 
d="M240 -20q-63 0 -101 46t-27 110q9 52 52 88.5t94 36.5q64 0 102 -47t27 -111q-9 -51 -52.5 -87t-94.5 -36zM888 -20q-63 0 -101 46t-27 110q9 51 52 88t94 37q64 0 102.5 -47t26.5 -111q-9 -51 -52.5 -87t-94.5 -36zM1528 -20q-63 0 -101 46t-27 110q9 51 52 88t94 37
q64 0 102.5 -47t26.5 -111q-9 -51 -52.5 -87t-94.5 -36z" />
    <glyph glyph-name="perthousand" unicode="&#x2030;" horiz-adv-x="2315" 
d="M474 819q-125 0 -199 77.5t-74 194.5q0 85 43 166t126 135.5t185 54.5q124 0 198 -78t74 -193q0 -86 -42.5 -167t-125.5 -135.5t-185 -54.5zM223 -1l1006 1429h205l-1007 -1429h-204zM484 978q82 0 135 57t53 131q0 52 -34 87t-92 35q-81 0 -134.5 -57t-53.5 -131
q0 -53 33.5 -87.5t92.5 -34.5zM1114 -17q-126 0 -200 77t-74 193q0 87 43 167.5t126 134.5t186 54q123 0 196.5 -76.5t73.5 -191.5q0 -87 -42 -168t-124 -135.5t-185 -54.5zM1840 -17q-126 0 -200 77t-74 193q0 87 43 167.5t126 134.5t186 54q123 0 196.5 -76.5t73.5 -191.5
q0 -87 -42 -168t-124 -135.5t-185 -54.5zM1123 141q81 0 135 58t54 132q0 50 -34.5 85.5t-92.5 35.5q-81 0 -134.5 -57.5t-53.5 -131.5q0 -52 33.5 -87t92.5 -35zM1849 141q81 0 135 58t54 132q0 50 -34.5 85.5t-92.5 35.5q-81 0 -134.5 -57.5t-53.5 -131.5q0 -52 33.5 -87
t92.5 -35z" />
    <glyph glyph-name="guilsinglleft" unicode="&#x2039;" horiz-adv-x="610" 
d="M317 252l-247 377l373 377h197l-381 -377l242 -377h-184z" />
    <glyph glyph-name="guilsinglright" unicode="&#x203a;" horiz-adv-x="607" 
d="M12 252l381 377l-241 377h182l249 -377l-375 -377h-196z" />
    <glyph glyph-name="fraction" unicode="&#x2044;" horiz-adv-x="489" 
d="M-358 0l1138 1536h161l-1137 -1536h-162z" />
    <glyph glyph-name="Euro" unicode="&#x20ac;" horiz-adv-x="1536" 
d="M830 201q109 0 206.5 55.5t166.5 149.5l186 -146q-112 -131 -260 -205t-307 -74q-238 0 -386 133.5t-160 384.5h-154l23 133h134q6 76 25 162h-130l25 134h145q42 112 107 205t152.5 164t202 110.5t245.5 39.5q167 0 294 -79t196 -213l-218 -117q-36 94 -108.5 141.5
t-174.5 47.5q-154 0 -267.5 -80.5t-180.5 -218.5h449l-24 -134h-475q-21 -77 -30 -162h476l-23 -133h-456q10 -154 95.5 -226t225.5 -72z" />
    <glyph glyph-name="uni2113" unicode="&#x2113;" horiz-adv-x="1139" 
d="M552 -12q-158 0 -245.5 91.5t-79.5 249.5q-37 -39 -123 -88l-54 129q23 15 91 59.5t103 69.5l92 485q23 129 67.5 224.5t103 150.5t123.5 81t138 26q128 0 192.5 -73t64.5 -191q0 -78 -25 -154.5t-85 -169.5t-172.5 -202t-275.5 -232q-15 -76 -17 -99q-4 -87 39.5 -132
t116.5 -45q90 0 178.5 58.5t150.5 138.5l90 -113q-195 -264 -473 -264zM495 657q191 163 283 298.5t92 254.5q0 102 -91 102q-67 0 -128.5 -76t-90.5 -240z" />
    <glyph glyph-name="uni2116" unicode="&#x2116;" horiz-adv-x="2920" 
d="M1232 375l205 1161h237l-271 -1536h-234l-586 1166l-205 -1166h-237l272 1536h234zM2413 1445q114 0 203 -36.5t143.5 -100t82 -144t27.5 -172.5t-26 -183.5t-79.5 -175t-126 -148t-173.5 -102.5t-215 -38t-203.5 37t-144 100.5t-82 144t-27.5 172.5t26 183.5t79.5 175
t126.5 147.5t174 102t215 38zM2252 542q87 0 162.5 41.5t124.5 106.5t76.5 143.5t27.5 154.5q0 113 -60 186.5t-177 73.5q-86 0 -161 -41.5t-123 -107t-75.5 -144t-27.5 -154.5q0 -113 59 -186t174 -73zM1711 0l28 153h923l-27 -153h-924z" />
    <glyph glyph-name="trademark" unicode="&#x2122;" horiz-adv-x="1615" 
d="M266 1432v104h453v-104h-169v-615h-115v615h-169zM1382 1536h121v-719h-113v526l-229 -377l-229 376v-525h-116v719h125l219 -368z" />
    <glyph glyph-name="estimated" unicode="&#x212e;" horiz-adv-x="1961" 
d="M1047 -18q-178 0 -340 62t-279.5 167.5t-186.5 250.5t-69 304q0 215 117 397t318.5 287.5t439.5 105.5q179 0 341 -62.5t279.5 -168t186.5 -252t69 -307.5v-21h-1417q-12 0 -12 -8v-430q0 -24 18 -49q106 -109 245 -171t292 -62q167 0 313.5 69.5t251.5 192.5h125
q-119 -141 -301.5 -223t-390.5 -82zM506 788h1087q9 0 9 15v430q0 33 -21 51q-106 105 -243.5 165t-288.5 60t-289 -61.5t-246 -169.5q-20 -23 -20 -53v-422q0 -15 12 -15z" />
    <glyph glyph-name="partialdiff" unicode="&#x2202;" horiz-adv-x="1179" 
d="M509 1452q98 18 186.5 1.5t157 -63.5t122 -120.5t80.5 -168.5t32.5 -207.5t-20.5 -238.5q-55 -286 -230 -466.5t-396 -180.5q-122 0 -207 48.5t-122 132t-22 201t85 249.5q51 91 117 162.5t139 116t150 66t155 16t150 -37.5q-16 178 -116 265t-276 54zM449 161
q59 0 121 36t118.5 101t103.5 166.5t72 223.5q12 57 18 111q-133 85 -277 17t-241 -261q-49 -89 -64.5 -165t0 -125t54 -76.5t95.5 -27.5z" />
    <glyph glyph-name="emptyset" unicode="&#x2205;" horiz-adv-x="1501" 
d="M767 -16q-227 0 -398 148l-89 -89l-66 66l89 89q-148 171 -148 398q0 166 82 307t223 223t307 82q227 0 398 -148l89 89l66 -66l-89 -89q148 -171 148 -398q0 -166 -82 -307t-223 -223t-307 -82zM434 329l600 600q-113 93 -267 93q-178 0 -302 -124t-124 -302
q0 -154 93 -267zM767 170q178 0 302 124t124 302q0 154 -93 267l-600 -600q113 -93 267 -93z" />
    <glyph glyph-name="product" unicode="&#x220f;" horiz-adv-x="1647" 
d="M163 0l215 1222h-119l37 204h1381l-37 -204h-119l-215 -1222h-203l215 1222h-734l-215 -1222h-206z" />
    <glyph glyph-name="summation" unicode="&#x2211;" horiz-adv-x="1389" 
d="M14 1l24 150l727 616l-505 617l25 152h1179l-32 -183h-869l469 -586l-670 -585h864l-33 -181h-1179z" />
    <glyph glyph-name="minus" unicode="&#x2212;" horiz-adv-x="1278" 
d="M261 601v180h823v-180h-823z" />
    <glyph glyph-name="radical" unicode="&#x221a;" horiz-adv-x="1420" 
d="M361 0l-101 686h-147l33 193h280l87 -581l813 1238h216l-1007 -1536h-174z" />
    <glyph glyph-name="infinity" unicode="&#x221e;" horiz-adv-x="1688" 
d="M484 279q-128 0 -213 89t-90 228q5 139 90 228t213 89q181 0 375 -202q191 202 375 202q134 0 216 -86t86 -231q-4 -145 -86 -231t-216 -86q-183 0 -375 201q-195 -201 -375 -201zM484 434q57 0 127.5 42t143.5 120q-73 78 -143.5 120t-127.5 42q-61 0 -104 -46.5
t-44 -115.5q1 -69 44 -115.5t104 -46.5zM1234 434q62 0 104 45t43 117q-1 72 -43 117t-104 45q-118 0 -272 -162q154 -162 272 -162z" />
    <glyph glyph-name="integral" unicode="&#x222b;" horiz-adv-x="928" 
d="M-91 -457l24 219q155 0 231.5 64t102.5 210l194 1102q24 137 123.5 223t228.5 86q59 0 116.5 -21t94.5 -61l-112 -161q-33 39 -84 39q-57 0 -99.5 -43t-56.5 -119l-190 -1075q-38 -221 -192 -342t-381 -121z" />
    <glyph glyph-name="approxequal" unicode="&#x2248;" horiz-adv-x="1384" 
d="M932 678q-43 0 -84 12.5t-65.5 24.5t-58 41.5t-41.5 38.5t-36 39q-65 69 -124 69q-69 0 -109 -57t-43 -150h-169q3 171 89.5 274t233.5 103q79 0 139.5 -36t122.5 -113q22 -26 35.5 -39.5t40 -27.5t56.5 -14q63 0 103.5 55t44.5 149h167q-4 -162 -84.5 -265.5
t-217.5 -103.5zM932 215q-43 0 -83.5 12t-66.5 25.5t-57.5 40.5t-42 39t-35.5 39q-33 36 -59.5 53t-64.5 16q-70 -2 -109.5 -58t-42.5 -149h-169q3 172 90 275t233 103q77 0 136.5 -35.5t125.5 -112.5q23 -27 35.5 -40t39.5 -28t57 -15q63 0 103.5 55t44.5 151h167
q-4 -162 -84.5 -266.5t-217.5 -104.5z" />
    <glyph glyph-name="notequal" unicode="&#x2260;" horiz-adv-x="1229" 
d="M186 0l205 395h-205v180h297l126 244h-423v180h515l186 357h173l-184 -357h235v-180h-329l-126 -244h455v-180h-547l-205 -395h-173z" />
    <glyph glyph-name="lessequal" unicode="&#x2264;" horiz-adv-x="1465" 
d="M1292 1461v-199l-933 -419l933 -420v-202l-1130 514v216zM162 0v156h1130v-156h-1130z" />
    <glyph glyph-name="greaterequal" unicode="&#x2265;" horiz-adv-x="1527" 
d="M237 1461l1130 -510v-216l-1130 -514v202l933 420l-933 419v199zM237 0v156h1130v-156h-1130z" />
    <glyph glyph-name="lozenge" unicode="&#x25ca;" horiz-adv-x="1367" 
d="M722 106l-619 617l619 618l616 -616zM723 362l359 363l-359 359l-363 -361z" />
    <glyph glyph-name="uniF8FF" unicode="&#xf8ff;" horiz-adv-x="1816" 
d="M956 0q-158 0 -302 62t-248 166t-166 248t-62 302t62 302.5t166 248.5t248 165.5t302 61.5q127 0 246 -39t214.5 -111t167.5 -168t111.5 -214.5t39.5 -245.5q0 -211 -104.5 -390t-284 -283.5t-390.5 -104.5zM956 74q144 0 274.5 56t224.5 150.5t150 224.5t56 273
t-55.5 273.5t-150 225t-225 150.5t-274.5 56q-143 0 -273 -56t-224.5 -150.5t-150.5 -225t-56 -273.5t56 -273t150.5 -224.5t224.5 -150.5t273 -56zM1364 444q-11 0 -24 13l-297 295q-11 12 -11.5 27.5t10.5 25.5l297 297q11 10 26 10t26 -10q11 -11 11 -26.5t-11 -26.5
l-271 -271l271 -270q22 -22 0 -51q-11 -13 -27 -13zM549 444q-16 0 -26.5 11t-10.5 26v594q0 16 10.5 26.5t26.5 10.5q15 0 26 -10.5t11 -26.5v-594q0 -15 -11 -26t-26 -11zM956 444q-15 0 -25.5 11t-10.5 26v594q0 16 10.5 26.5t25.5 10.5q16 0 26.5 -10.5t10.5 -26.5v-594
q0 -15 -10.5 -26t-26.5 -11zM659 741q-15 0 -25.5 11t-10.5 26q0 16 10.5 26.5t25.5 10.5h187q15 0 26 -10.5t11 -26.5q0 -15 -11 -26t-26 -11h-187z" />
    <glyph glyph-name="G.ss02" horiz-adv-x="1576" 
d="M741 -19q-160 0 -286.5 52t-208 147.5t-112 235.5t-0.5 310q38 219 159.5 384t295.5 250.5t376 85.5q206 0 356 -89.5t214 -251.5l-222 -98q-41 115 -133.5 170.5t-222.5 55.5q-215 0 -379.5 -143t-207.5 -391q-42 -235 65 -370.5t323 -135.5q183 0 327.5 103.5
t182.5 266.5l-437 -8l35 197l665 -9q-9 -87 -30 -173q-47 -192 -162.5 -327t-267.5 -198.5t-330 -63.5z" />
    <glyph glyph-name="Gbreve.ss02" horiz-adv-x="1576" 
d="M994 1567q-163 0 -245 68.5t-56 213.5h136q-15 -85 35 -127.5t150 -42.5q101 0 166.5 42t80.5 128h136q-27 -146 -133 -214t-270 -68zM741 -19q-160 0 -286.5 52t-208 147.5t-112 235.5t-0.5 310q38 219 159.5 384t295.5 250.5t376 85.5q206 0 356 -89.5t214 -251.5
l-222 -98q-41 115 -133.5 170.5t-222.5 55.5q-215 0 -379.5 -143t-207.5 -391q-42 -235 65 -370.5t323 -135.5q183 0 327.5 103.5t182.5 266.5l-437 -8l35 197l665 -9q-9 -87 -30 -173q-47 -192 -162.5 -327t-267.5 -198.5t-330 -63.5z" />
    <glyph glyph-name="Gcommaaccent.ss02" horiz-adv-x="1576" 
d="M741 -19q-160 0 -286.5 52t-208 147.5t-112 235.5t-0.5 310q38 219 159.5 384t295.5 250.5t376 85.5q206 0 356 -89.5t214 -251.5l-222 -98q-41 115 -133.5 170.5t-222.5 55.5q-215 0 -379.5 -143t-207.5 -391q-42 -235 65 -370.5t323 -135.5q183 0 327.5 103.5
t182.5 266.5l-437 -8l35 197l665 -9q-9 -87 -30 -173q-47 -192 -162.5 -327t-267.5 -198.5t-330 -63.5zM467 -566l-107 53l229 370h205z" />
    <glyph glyph-name="Gdotaccent.ss02" horiz-adv-x="1576" 
d="M995 1567q-58 0 -92.5 41.5t-24.5 99.5t59.5 99t108.5 41q57 0 91 -41t23 -99q-9 -58 -58 -99.5t-107 -41.5zM741 -19q-160 0 -286.5 52t-208 147.5t-112 235.5t-0.5 310q38 219 159.5 384t295.5 250.5t376 85.5q206 0 356 -89.5t214 -251.5l-222 -98
q-41 115 -133.5 170.5t-222.5 55.5q-215 0 -379.5 -143t-207.5 -391q-42 -235 65 -370.5t323 -135.5q183 0 327.5 103.5t182.5 266.5l-437 -8l35 197l665 -9q-9 -87 -30 -173q-47 -192 -162.5 -327t-267.5 -198.5t-330 -63.5z" />
    <glyph glyph-name="i.loclTRK" horiz-adv-x="539" 
d="M407 1222q-58 0 -95 41t-32 100q6 58 52.5 99t105.5 41q57 0 94.5 -41t30.5 -99q-6 -58 -52.5 -99.5t-103.5 -41.5zM65 0l178 1006h231l-178 -1006h-231z" />
    <glyph glyph-name="f_t" horiz-adv-x="1333" 
d="M125 0l146 826h-195l32 180h195l40 224q55 326 339 326q79 0 160 -28l-16 -165q-41 11 -87 11q-63 0 -110 -40t-59 -112l-38 -216h236q73 0 124 41.5t65 118.5l29 169h212l-57 -329h219l-32 -180h-219l-92 -516q-22 -132 98 -132h95l-31 -178h-153q-135 0 -201 81
t-42 221l94 524h-376l-147 -826h-229z" />
    <glyph glyph-name="t_t" horiz-adv-x="1373" 
d="M420 0q-136 0 -202 81t-41 221l93 524h-201l31 180h72q64 0 109 38t56 102l24 138h223l-49 -278h283q64 0 109 38t56 102l25 138h222l-49 -278h219l-32 -180h-219l-92 -516q-22 -132 98 -132h95l-31 -178h-153q-135 0 -201 81t-42 221l93 524h-413l-92 -516
q-22 -132 98 -132h95l-32 -178h-152z" />
    <glyph glyph-name="uni0308.case" 
d="M-449 1567q-51 0 -81.5 36.5t-21.5 88.5q10 51 53.5 87.5t93.5 36.5q51 0 81.5 -36.5t20.5 -87.5q-8 -51 -51.5 -88t-94.5 -37zM-57 1567q-51 0 -81 36.5t-22 88.5q10 51 53 87.5t94 36.5t81.5 -36.5t20.5 -87.5q-9 -52 -52 -88.5t-94 -36.5z" />
    <glyph glyph-name="uni0307.case" 
d="M-70 1567q-58 0 -92.5 41.5t-24.5 99.5t59.5 99t108.5 41q57 0 91 -41t23 -99q-9 -58 -58 -99.5t-107 -41.5z" />
    <glyph glyph-name="gravecomb.case" 
d="M2 1567l-179 263l132 84l195 -347h-148z" />
    <glyph glyph-name="acutecomb.case" 
d="M-243 1567l319 347l101 -84l-271 -263h-149z" />
    <glyph glyph-name="uni030B.case" 
d="M-612 1567l319 347l101 -84l-271 -263h-149zM-243 1567l318 347l102 -84l-272 -263h-148z" />
    <glyph glyph-name="uni0302.case" 
d="M-302 1567h-147l271 297h150l167 -297h-148l-110 210z" />
    <glyph glyph-name="uni030C.case" 
d="M-234 1567l-167 297h147l110 -211l183 211h149l-272 -297h-150z" />
    <glyph glyph-name="uni0306.case" 
d="M-263 1567q-163 0 -245 68.5t-56 213.5h136q-15 -85 35 -127.5t150 -42.5q101 0 166.5 42t80.5 128h136q-27 -146 -133 -214t-270 -68z" />
    <glyph glyph-name="uni030A.case" 
d="M-126 1567q-86 0 -140.5 52t-56.5 136q-4 103 71.5 181.5t186.5 78.5q87 0 139.5 -52t54.5 -134q3 -103 -71 -182.5t-184 -79.5zM-115 1670q62 0 102.5 42.5t40.5 98.5q0 45 -28 75t-76 30q-60 0 -101 -45t-41 -102q0 -45 27.5 -72t75.5 -27z" />
    <glyph glyph-name="tildecomb.case" 
d="M-139 1559q-121 0 -172 113q-25 55 -76 55q-45 0 -78.5 -42.5t-45.5 -110.5h-123q22 121 94 197.5t170 76.5q118 0 171 -113q26 -55 78 -55q45 0 77 41t45 111h124q-22 -120 -92.5 -196.5t-171.5 -76.5z" />
    <glyph glyph-name="uni0304.case" 
d="M-617 1567l24 140h656l-25 -140h-655z" />
    <glyph glyph-name="hookabovecomb.case" 
d="M-151 1536l23 127q119 22 133 103q6 34 -10.5 55.5t-53.5 21.5q-48 0 -93 -35l-45 83q75 54 163 54q87 0 130.5 -47.5t30.5 -124.5q-20 -118 -157 -157l-13 -80h-108z" />
    <glyph glyph-name="uni0312.case" 
d="M-16 1884h166l-180 -317h-238z" />
    <glyph glyph-name="uni0338.case" 
d="M-1015 -8l1105 1588l104 -63l-1105 -1587z" />
    <glyph glyph-name="uni03060301" 
d="M-312 1691l318 348l103 -84l-273 -264h-148zM-321 1202q-158 0 -239.5 88.5t-53.5 245.5h137q-17 -97 32 -159t144 -62q96 0 167.5 62t88.5 159h136q-28 -157 -140.5 -245.5t-271.5 -88.5z" />
    <glyph glyph-name="uni03060300" 
d="M-308 1691l-179 264l131 84l196 -348h-148zM-321 1202q-158 0 -239.5 88.5t-53.5 245.5h137q-17 -97 32 -159t144 -62q96 0 167.5 62t88.5 159h136q-28 -157 -140.5 -245.5t-271.5 -88.5z" />
    <glyph glyph-name="uni03060309" 
d="M-297 1625l22 127q119 22 133 103q6 34 -10.5 55.5t-53.5 21.5q-47 0 -92 -35l-45 83q74 53 163 53q86 0 130 -47.5t30 -124.5q-20 -117 -155 -156l-15 -80h-107zM-321 1202q-158 0 -239.5 88.5t-53.5 245.5h137q-17 -97 32 -159t144 -62q96 0 167.5 62t88.5 159h136
q-28 -157 -140.5 -245.5t-271.5 -88.5z" />
    <glyph glyph-name="uni03060303" 
d="M-104 1683q-107 0 -153 99q-20 45 -60 45q-38 0 -65 -36t-37 -95h-117q19 109 83 177.5t152 68.5q107 0 150 -100q20 -44 64 -44q37 0 62.5 34.5t36.5 95.5h118q-19 -107 -82.5 -176t-151.5 -69zM-321 1202q-158 0 -239.5 88.5t-53.5 245.5h137q-17 -97 32 -159t144 -62
q96 0 167.5 62t88.5 159h136q-28 -157 -140.5 -245.5t-271.5 -88.5z" />
    <glyph glyph-name="uni03020301" 
d="M-212 1691l318 348l103 -84l-273 -264h-148zM-359 1239h-148l272 297h150l167 -297h-149l-109 210z" />
    <glyph glyph-name="uni03020300" 
d="M-208 1691l-179 264l131 84l196 -348h-148zM-359 1239h-148l272 297h150l167 -297h-149l-109 210z" />
    <glyph glyph-name="uni03020309" 
d="M-197 1625l22 127q119 22 133 103q6 34 -10.5 55.5t-53.5 21.5q-47 0 -92 -35l-45 83q74 53 163 53q86 0 130 -47.5t30 -124.5q-20 -117 -155 -156l-15 -80h-107zM-359 1239h-148l272 297h150l167 -297h-149l-109 210z" />
    <glyph glyph-name="uni03020303" 
d="M-4 1683q-107 0 -153 99q-20 45 -60 45q-38 0 -65 -36t-37 -95h-117q19 109 83 177.5t152 68.5q107 0 150 -100q20 -44 64 -44q37 0 62.5 34.5t36.5 95.5h118q-19 -107 -82.5 -176t-151.5 -69zM-359 1239h-148l272 297h150l167 -297h-149l-109 210z" />
    <glyph glyph-name="uni03060301.case" 
d="M-265 1990l319 347l101 -84l-271 -263h-149zM-263 1567q-163 0 -245 68.5t-56 213.5h136q-15 -85 35 -127.5t150 -42.5q101 0 166.5 42t80.5 128h136q-27 -146 -133 -214t-270 -68z" />
    <glyph glyph-name="uni03060300.case" 
d="M-260 1990l-179 263l132 84l195 -347h-148zM-263 1567q-163 0 -245 68.5t-56 213.5h136q-15 -85 35 -127.5t150 -42.5q101 0 166.5 42t80.5 128h136q-27 -146 -133 -214t-270 -68z" />
    <glyph glyph-name="uni03060309.case" 
d="M-243 1959l23 127q119 22 133 103q6 34 -10.5 55.5t-53.5 21.5q-48 0 -93 -35l-45 83q75 54 163 54q87 0 130.5 -47.5t30.5 -124.5q-20 -118 -157 -157l-13 -80h-108zM-263 1567q-163 0 -245 68.5t-56 213.5h136q-15 -85 35 -127.5t150 -42.5q101 0 166.5 42t80.5 128
h136q-27 -146 -133 -214t-270 -68z" />
    <glyph glyph-name="uni03060303.case" 
d="M-37 1982q-121 0 -172 113q-25 55 -76 55q-45 0 -78.5 -42.5t-45.5 -110.5h-123q22 121 94 197.5t170 76.5q118 0 171 -113q26 -55 78 -55q45 0 77 41t45 111h124q-22 -120 -92.5 -196.5t-171.5 -76.5zM-263 1567q-163 0 -245 68.5t-56 213.5h136q-15 -85 35 -127.5
t150 -42.5q101 0 166.5 42t80.5 128h136q-27 -146 -133 -214t-270 -68z" />
    <glyph glyph-name="uni03020301.case" 
d="M-156 2005l319 347l101 -84l-271 -263h-149zM-302 1567h-147l271 297h150l167 -297h-148l-110 210z" />
    <glyph glyph-name="uni03020300.case" 
d="M-151 2005l-179 263l132 84l195 -347h-148zM-302 1567h-147l271 297h150l167 -297h-148l-110 210z" />
    <glyph glyph-name="uni03020309.case" 
d="M-134 1974l23 127q119 22 133 103q6 34 -10.5 55.5t-53.5 21.5q-48 0 -93 -35l-45 83q75 54 163 54q87 0 130.5 -47.5t30.5 -124.5q-20 -118 -157 -157l-13 -80h-108zM-302 1567h-147l271 297h150l167 -297h-148l-110 210z" />
    <glyph glyph-name="uni03020303.case" 
d="M72 1997q-121 0 -172 113q-25 55 -76 55q-45 0 -78.5 -42.5t-45.5 -110.5h-123q22 121 94 197.5t170 76.5q118 0 171 -113q26 -55 78 -55q45 0 77 41t45 111h124q-22 -120 -92.5 -196.5t-171.5 -76.5zM-302 1567h-147l271 297h150l167 -297h-148l-110 210z" />
    </font>
</defs>
</svg>
